Фантазм 5: Уничтожитель / Phantasm: Ravager (Дэвид Хартман / David Hartman) [2016, Ужасы, Фэнтези, WEB-DLRip, 1080р] L1 (Xixidok)

 

Создавать темы 05-Окт-2016 16:28

- Фантазм 5: Уничтожитель / Phantasm: Ravager - Производство: США, Silver Sphere Corporation
Жанр: Ужасы, Фэнтези
Режиссер: Дэвид Хартман
Продюсер: Дон Коскарелли, Рэджи Бэннистер, Брэд Бару
Актеры: Рэджи Бэннистер, А. Майкл Болдуин, Кэти Лестер, Билл Торнбер, Энгус Скримм, Дэниэл Швайгер, Дэниэл Робак, Джей Олива, Глория Линн Генри, Кин Окада
Описание:
Заключительная серия Фантазма, в которой Реджи и Майк сомневаются, что все, что с ними происходило, было на самом деле и все это просто игры разума. Но как это может происходить одновременно у всех в голове...


Дата мировой премьеры: 25 сентября 2016
Дата российской премьеры: Неизвестно
Продолжительность: 01:25:28
Качество видео: WEB-DLRip 1080р SAMPLE
Перевод: Любительский (одноголосый, закадровый) ХиХиДок
Реклама: В начале и в конце присутствует реклама. (Совсем чуть-чуть)
Формат: МКV
Видео кодек: AVC
Аудио кодек: АС3
Видео: 1920x1080 (16:9), 23.976 fps, MPEG-4 AVC ~5 062 kbps avg
Аудио №1: 48 kHz, AC3 Dolby Digital, 3/2 (L,C,R,l,r) + LFE ch, ~384 kbps | RUS
Аудио №2: 48 kHz, AC3 Dolby Digital, 3/2 (L,C,R,l,r) + LFE ch, ~384 kbps | ENG

Mediainfo:

Формат                                   : AVI
Формат/Информация                        : Audio Video Interleave
Размер файла                             : 1,46 Гбайт
Продолжительность                        : 1 ч. 25 м.
Общий поток                              : 2439 Кбит/сек
Программа кодирования                    : VirtualDubMod 1.5.10.3 | [url=http://www.virtualdub-fr.org]www.virtualdub-fr.org[/url] || (build 2550/release)
Библиотека кодирования                   : VirtualDubMod build 2550/release
Видео
Идентификатор                            : 0
Формат                                   : MPEG-4 Visual
Профиль формата                          : Advanced [email protected]
Параметр BVOP формата                    : 1
Параметр QPel формата                    : Нет
Параметр GMC формата                     : Без точки перехода
Параметр матрицы формата                 : Выборочная
Идентификатор кодека                     : XVID
Идентификатор кодека/Подсказка           : XviD
Продолжительность                        : 1 ч. 25 м.
Битрейт                                  : 2238 Кбит/сек
Ширина                                   : 720 пикселей
Высота                                   : 400 пикселей
Соотношение сторон                       : 16:9
Частота кадров                           : 23,976 кадра/сек
Цветовое пространство                    : YUV
Субдискретизация насыщенности            : 4:2:0
Битовая глубина                          : 8 бит
Тип развёртки                            : Прогрессивная
Метод сжатия                             : С потерями
Бит/(Пиксели*Кадры)                      : 0.324
Размер потока                            : 1,34 Гбайт (92%)
Библиотека кодирования                   : XviD 73
Аудио
Идентификатор                            : 1
Формат                                   : AC-3
Формат/Информация                        : Audio Coding 3
Расширение режима                        : CM (complete main)
Параметр Endianness формата              : Big
Идентификатор кодека                     : 2000
Продолжительность                        : 1 ч. 25 м.
Вид битрейта                             : Постоянный
Битрейт                                  : 192 Кбит/сек
Каналы                                   : 2 канала
Расположение каналов                     : Front: L R
Частота                                  : 48,0 КГц
Битовая глубина                          : 16 бит
Метод сжатия                             : С потерями
Размер потока                            : 117 Мбайт (8%)
Выравнивание                             : Разделение по промежуткам
Продолжительность промежутка             : 42  мс. (1,00 видеокадр)
Время предзагрузки промежутка            : 500  мс.
Скриншоты:
Яндекс.Метрика
Рейтинг@Mail.ru