[ Сегодня на трекере фрилич! Идет свободное скачивание без начисления Download ]

Презерватив-убийца / Kondom Des Grauens (Мартин Вальц \ Martin Walz) [1996 г., комедия, DVDRip-AVC] VO

 

Создавать темы 07-Янв-2014 03:33

-Презерватив-убийца / Kondom Des Grauens-- Производство: Германия, США
Год выпуска: 1996 г.
Жанр: комедия
Продолжительность: 01:43:12
Перевод: Профессиональный (одноголосый, закадровый) [Ю. Сербин]
Режиссер: Мартин Вальц \ Martin Walz-В ролях: Удо Замель, Питер Лохмайер, Марк Рихтер, Леонард Ленсинк, Ирис Берберн, Хеннинг Шлютер, Рон Уильямс, Адриана Альтарас, Никита Инжеваткин, Эвелин Кюннеке, Ральф Вольтер и др.-Описание: В отеле, где снимают номера для сексуальных утех, появляется презерватив-убийца, откусывающий причинное место у своих "пользователей". Это дело расследует полицейский-гей Луиджи Макерони. Поначалу ему никто не верит, но когда зубастый монстр лишает мужского достоинства кандидата в президенты, Луиджи дают зеленый свет и он начинает беспощадную, безжалостную охоту. В конце концов храбрый полицейский ловит прародителя - огромный презерватив-убийцу на своего огромного "живца"...
Безжалостная, за гранью фола пародия на полицейские триллеры и фильмы ужасов, вызывающая порой просто истерический смех. В политкорректной Америке середины 90-х вряд ли смогли бы так посмеяться над собой. Много тупого немецкого юмора. Вместе с тем, фильм выдержан в хорошем кичевом ключе от начала до конца. Фильм снят по комиксам Ральфа Кенинга.
-
Качество видео: DVDRip-AVC
Контейнер: MKV
Видео кодек: H.264
Аудио кодек: AC3
Видео: 688x452 (3:2), 25.000 fps, AVC, ~2319 Kbps, 0.298 bits/pixel
Аудио: Русский, 48.0 KHz, AC3, 2 ch, 192 Kbps
Аудио #2: Немецкий, 48.0 KHz, AC3, 2 ch, 192 Kbps
Cубтитры: отсутствуют

Media Info

Unique ID : 246096890112849636321549280757747927511 (0xB92489781A9E1A27B92E17054A69C9D7)
Complete name : \Prezervativ_ubiitsa.1996.DVDRip-AVC.mkv
Format : Matroska
Format version : Version 4 / Version 2
File size : 1.95 GiB
Duration : 1h 43mn
Overall bit rate : 2 703 Kbps
Encoded date : UTC 2014-01-05 13:48:13
Writing application : mkvmerge v6.6.0 ('The Edge Of The In Between') built on Dec 1 2013 17:55:00
Writing library : libebml v1.3.0 + libmatroska v1.4.1
Video
ID : 1
Format : AVC
Format/Info : Advanced Video Codec
Format profile : [email protected]
Format settings, CABAC : Yes
Format settings, ReFrames : 16 frames
Codec ID : V_MPEG4/ISO/AVC
Duration : 1h 43mn
Bit rate : 2 319 Kbps
Width : 688 pixels
Height : 452 pixels
Display aspect ratio : 3:2
Frame rate mode : Constant
Frame rate : 25.000 fps
Color space : YUV
Chroma subsampling : 4:2:0
Bit depth : 8 bits
Scan type : Progressive
Bits/(Pixel*Frame) : 0.298
Stream size : 1.63 GiB (84%)
Writing library : x264 core 138 r2358 9e941d1
Encoding settings : cabac=1 / ref=16 / deblock=1:0:0 / analyse=0x3:0x133 / me=umh / subme=10 / psy=1 / psy_rd=1.05:0.10 / mixed_ref=1 / me_range=32 / chroma_me=1 / trellis=2 / 8x8dct=1 / cqm=0 / deadzone=21,11 / fast_pskip=0 / chroma_qp_offset=-3 / threads=8 / lookahead_threads=2 / sliced_threads=0 / nr=0 / decimate=0 / interlaced=0 / bluray_compat=0 / constrained_intra=0 / bframes=12 / b_pyramid=2 / b_adapt=2 / b_bias=0 / direct=3 / weightb=1 / open_gop=0 / weightp=2 / keyint=250 / keyint_min=25 / scenecut=40 / intra_refresh=0 / rc_lookahead=60 / rc=2pass / mbtree=0 / bitrate=2319 / ratetol=1.0 / qcomp=0.60 / qpmin=0 / qpmax=60 / qpstep=4 / cplxblur=20.0 / qblur=0.5 / vbv_maxrate=50000 / vbv_bufsize=62500 / nal_hrd=none / ip_ratio=1.40 / pb_ratio=1.30 / aq=1:1.00
Default : No
Forced : No
Matrix coefficients : BT.601
Audio #1
ID : 2
Format : AC-3
Format/Info : Audio Coding 3
Mode extension : CM (complete main)
Format settings, Endianness : Big
Codec ID : A_AC3
Duration : 1h 43mn
Bit rate mode : Constant
Bit rate : 192 Kbps
Channel count : 2 channels
Channel positions : Front: L R
Sampling rate : 48.0 KHz
Bit depth : 16 bits
Compression mode : Lossy
Delay relative to video : 24ms
Stream size : 142 MiB (7%)
Language : Russian
Default : Yes
Forced : No
Audio #2
ID : 3
Format : AC-3
Format/Info : Audio Coding 3
Mode extension : CM (complete main)
Format settings, Endianness : Big
Codec ID : A_AC3
Duration : 1h 43mn
Bit rate mode : Constant
Bit rate : 192 Kbps
Channel count : 2 channels
Channel positions : Front: L R
Sampling rate : 48.0 KHz
Bit depth : 16 bits
Compression mode : Lossy
Delay relative to video : 24ms
Stream size : 142 MiB (7%)
Language : German
Default : No
Forced : No
Menu
00:00:00.000 : en:Chapter 01
00:10:00.000 : en:Chapter 02
00:20:00.000 : en:Chapter 03
00:30:00.000 : en:Chapter 04
00:40:00.000 : en:Chapter 05
00:50:00.000 : en:Chapter 06
01:00:00.000 : en:Chapter 07
01:10:00.000 : en:Chapter 08
01:20:00.000 : en:Chapter 09
01:30:00.000 : en:Chapter 10
01:40:00.000 : en:Chapter 11

Скриншот c названием фильма

Скриншоты

Яндекс.Метрика
Рейтинг@Mail.ru