Гений / Genius (Майкл Грандадж / Michael Grandage) [2016, Драма, Биография, WEB-DL, 1080p-LQ] (Line)

 

Создавать темы 03-Окт-2016 17:32

- Гений / Genius - Производство: Великобритания, США
Жанр: Драма, Биография
Режиссер: Майкл Грандадж
Продюсер: Джеймс Биерман, Майкл Грандадж, Джон Логан
Актеры: Колин Фёрт, Николь Кидман, Лора Линни, Джуд Лоу, Гай Пирс, Доминик Уэст, Ванесса Кирби, Марк Арнольд, Джейн Перри, Кэтерин Кингсли.
Описание:
История о непростой дружбе двух очень талантливых людей: писателя Томаса Вулфа и издателя Макса Перкинса, открывшего всему миру таких великих романистов, как Ф. Скотт Фицджеральд и Эрнест Хемингуэй.


Возраст: 16+ (зрителям, достигшим 16 лет)
Рейтинг MPAA: PG-13 (детям до 13 лет просмотр нежелателен)
Дата мировой премьеры: 16 февраля 2016
Дата российской премьеры: 7 июля 2016, «Централ Партнершип»
Продолжительность: 01:43:56
Качество видео: WEB-DL 1080p-LQ SAMPLE
Перевод: Дублированный [Чистый звук]
Реклама: Присутствуют аудио, видео и текстовые вставки рекламы!
Видео: AVC/H.264, 1912x796, 4150 кб/с
Аудио: AC3, 2 ch, 384 кб/с, CBR

Mediainfo:

Общее
Уникальный идентификатор                 : 186132231239263476492903511840172526726 (0x8C07C386D1C3C1879CAB9A8FB087CC86)
Полное имя                               : F:\Мои раздачи\Гений\GEniy.2o16.D.WEB-DL.1o8op_KOSHARA.mkv
Формат                                   : Matroska
Версия формата                           : Version 2
Размер файла                             : 3,36 Гбайт
Продолжительность                        : 1 ч. 43 м.
Режим общего битрейта                    : Переменный
Общий поток                              : 4626 Кбит/сек
Дата кодирования                         : UTC 2016-10-03 06:53:42
Программа кодирования                    : mkvmerge v8.3.0 ('Over the Horizon') 64bit
Библиотека кодирования                   : libebml v1.3.1 + libmatroska v1.4.2
DURATION                                 : 01:43:56.288000000
NUMBER_OF_FRAMES                         : 194884
NUMBER_OF_BYTES                          : 299341824
_STATISTICS_WRITING_APP                  : mkvmerge v8.3.0 ('Over the Horizon') 64bit
_STATISTICS_WRITING_DATE_UTC             : 2016-10-03 06:53:42
_STATISTICS_TAGS                         : BPS DURATION NUMBER_OF_FRAMES NUMBER_OF_BYTES
Видео
Идентификатор                            : 1
Формат                                   : AVC
Формат/Информация                        : Advanced Video Codec
Профиль формата                          : [url=mailto:[email protected]][email protected][/url]
Параметр CABAC формата                   : Да
Параметр ReFrames формата                : 5 кадров
Идентификатор кодека                     : V_MPEG4/ISO/AVC
Продолжительность                        : 1 ч. 43 м.
Вид битрейта                             : Переменный
Битрейт                                  : 4150 Кбит/сек
Максимальный битрейт                     : 4600 Кбит/сек
Ширина                                   : 1912 пикселей
Высота                                   : 796 пикселей
Соотношение сторон                       : 2,40:1
Режим частоты кадров                     : Постоянный
Частота кадров                           : 23,976 кадра/сек
Стандарт вещания                         : Component
Цветовое пространство                    : YUV
Субдискретизация насыщенности            : 4:2:0
Битовая глубина                          : 8 бит
Тип развёртки                            : Прогрессивная
Бит/(Пиксели*Кадры)                      : 0.114
Размер потока                            : 3,01 Гбайт (90%)
Default                                  : Да
Forced                                   : Нет
Основные цвета                           : BT.709
Характеристики трансфера                 : BT.709
Коэффициенты матрицы                     : BT.709
Аудио
Идентификатор                            : 2
Формат                                   : AC-3
Формат/Информация                        : Audio Coding 3
Расширение режима                        : CM (complete main)
Параметр Endianness формата              : Big
Идентификатор кодека                     : A_AC3
Продолжительность                        : 1 ч. 43 м.
Вид битрейта                             : Постоянный
Битрейт                                  : 384 Кбит/сек
Каналы                                   : 2 канала
Расположение каналов                     : Front: L R
Частота                                  : 48,0 КГц
Битовая глубина                          : 16 бит
Метод сжатия                             : С потерями
Размер потока                            : 285 Мбайт (8%)
Default                                  : Да
Forced                                   : Нет
Скриншоты:
Яндекс.Метрика
Рейтинг@Mail.ru