Добро пожаловать в Вуп-Вуп / Welcome to Woop Woop (1997) HDTVRip 720p | P2, A

 

Создавать темы 02-Окт-2016 21:23

Информация о фильме
Название: Добро пожаловать в Вуп-Вуп
Оригинальное название: Welcome to Woop Woop
Год выхода: 1997
Жанр: комедия, приключения, музыка
Режиссер: Стефан Эллиотт / Stephan Elliott
В ролях: Джонатон Шаех, Род Тейлор, Сьюзи Портер, Ди Смарт, Ричард Мойр, Мэгги Киркпатрик, Бэрри Хамфриз, Марк Уилсон, Пол Меркурио, Дэвид Боуи, Кон Деметриу, Рэйчел Гриффитс, Тина Луиз, Челси Браун, Эдрин Уайт, Феликс Уильямсон, Кевин Коуплэнд, Шэйн Пэкстон, Бинди Пэкстон, Алан Финни
О фильме:
Тедди — очаровательный уголовник из Нью — Йорка, на которого неожиданно обрушилось целое море проблем. Он уверен, что единственный выход из сложившейся ситуации — побег в Австралию. И действительно, все началось как невероятное приключение.
Но, казалось бы, оставшиеся в прошлом неурядицы перерастают в большие неприятности, как только он встречает на своем пути обворожительную искусительницу Энджи. Стремительно развивающиеся отношения перерастают в брак, и так весело начавшееся путешествие неожиданно заканчивается в заброшенном австралийском городке Вуп — Вуп, где правит сумасбродный «папочка» Энджи. Порядки местных аборигенов могут свести с ума любого нормального человека. А покинуть безумный город почти невозможно.
Искавший приключений и веселья Тэдди оказывается запертым в этом богом забытом местечке в кругу умалишенных. Есть ли у него хотя бы один шанс вырваться на свободу и закончить это затянувшееся путешествие?

Страна: Великобритания, Австралия
Студия: Goldwyn Entertainment Company, Australian Film Finance Corporation (AFFC), Scala Productions
Продолжительность: 01:33:00.160
Перевод: Профессиональный (двухголосый закадровый) MGMHD
Авторский (одноголосый закадровый) Ю. Сербин
Файл
Кодек: h.264
Качество: HDTVRip 720p Источник HDTV MGMHD 1080
Видео: 1280x720 (16:9), 25.000 fps, AVC, ~3639 Kbps, 0.158 bits/pixel
Звук:
Русский, 48.0 KHz, AC3, 2 ch, 160 Kbps MGMHD/НТВ+?
Русский, 48.0 KHz, AC3, 2 ch, 192 Kbps (двойное моно) Ю. Сербин
Английский, 48.0 KHz, AC3, 2 ch, 192 Kbps
Субтитры: нет

Media info

Общее
Уникальный идентификатор : 234998830720892544023414940302334317366 (0xB0CB20E540F9271784823AFFC59D5336)
Полное имя : E:FILMSDobro_pozhalovat_v_Vup-Vup.1997.HDTVRip720p.mkv
Формат : Matroska
Версия формата : Version 4 / Version 2
Размер файла : 2,72 Гбайт
Продолжительность : 1 ч. 33 м.
Общий поток : 4185 Кбит/сек
Дата кодирования : UTC 2016-10-02 16:20:22
Программа кодирования : mkvmerge v9.4.2 ('So High') 64bit
Библиотека кодирования : libebml v1.3.4 + libmatroska v1.4.5
Видео
Идентификатор : 1
Формат : AVC
Формат/Информация : Advanced Video Codec
Профиль формата : [email protected]
Параметр CABAC формата : Да
Параметр ReFrames формата : 9 кадров
Идентификатор кодека : V_MPEG4/ISO/AVC
Продолжительность : 1 ч. 33 м.
Битрейт : 3639 Кбит/сек
Ширина : 1280 пикселей
Высота : 720 пикселей
Соотношение сторон : 16:9
Режим частоты кадров : Постоянный
Частота кадров : 25,000 кадров/сек
Цветовое пространство : YUV
Субдискретизация насыщенности : 4:2:0
Битовая глубина : 8 бит
Тип развёртки : Прогрессивная
Бит/(Пиксели*Кадры) : 0.158
Размер потока : 2,36 Гбайт (87%)
Библиотека кодирования : x264 core 148 r2638 7599210
Настройки программы : cabac=1 / ref=9 / deblock=1:-3:-3 / analyse=0x3:0x133 / me=umh / subme=11 / psy=1 / psy_rd=1.10:0.15 / mixed_ref=1 / me_range=48 / chroma_me=1 / trellis=2 / 8x8dct=1 / cqm=0 / deadzone=21,11 / fast_pskip=0 / chroma_qp_offset=-3 / threads=8 / lookahead_threads=1 / sliced_threads=0 / nr=0 / decimate=0 / interlaced=0 / bluray_compat=0 / constrained_intra=0 / bframes=7 / b_pyramid=2 / b_adapt=2 / b_bias=0 / direct=3 / weightb=1 / open_gop=0 / weightp=2 / keyint=250 / keyint_min=25 / scenecut=40 / intra_refresh=0 / rc_lookahead=60 / rc=2pass / mbtree=0 / bitrate=3639 / ratetol=1.0 / qcomp=0.60 / qpmin=0 / qpmax=69 / qpstep=4 / cplxblur=20.0 / qblur=0.5 / vbv_maxrate=40000 / vbv_bufsize=50000 / nal_hrd=none / filler=0 / ip_ratio=1.40 / pb_ratio=1.30 / aq=1:1.00
Default : Нет
Forced : Нет
Цветовой диапазон : Limited
Основные цвета : BT.709
Характеристики трансфера : BT.709
Коэффициенты матрицы : BT.709
Аудио #1
Идентификатор : 2
Формат : AC-3
Формат/Информация : Audio Coding 3
Расширение режима : CM (complete main)
Параметр Endianness формата : Big
Идентификатор кодека : A_AC3
Продолжительность : 1 ч. 32 м.
Вид битрейта : Постоянный
Битрейт : 160 Кбит/сек
Каналы : 2 канала
Расположение каналов : Front: L R
Частота : 48,0 КГц
Частота кадров : 31,250 кадров/сек (1536 spf)
Метод сжатия : С потерями
Размер потока : 106 Мбайт (4%)
Заголовок : MGMHD
Язык : Russian
Default : Да
Forced : Нет
Аудио #2
Идентификатор : 3
Формат : AC-3
Формат/Информация : Audio Coding 3
Расширение режима : CM (complete main)
Параметр Endianness формата : Big
Идентификатор кодека : A_AC3
Продолжительность : 1 ч. 32 м.
Вид битрейта : Постоянный
Битрейт : 192 Кбит/сек
Каналы : 2 канала
Расположение каналов : Front: L R
Частота : 48,0 КГц
Частота кадров : 31,250 кадров/сек (1536 spf)
Метод сжатия : С потерями
Размер потока : 128 Мбайт (5%)
Заголовок : Serbin
Язык : Russian
Default : Нет
Forced : Нет
Аудио #3
Идентификатор : 4
Формат : AC-3
Формат/Информация : Audio Coding 3
Расширение режима : CM (complete main)
Параметр Endianness формата : Big
Идентификатор кодека : A_AC3
Продолжительность : 1 ч. 32 м.
Вид битрейта : Постоянный
Битрейт : 192 Кбит/сек
Каналы : 2 канала
Расположение каналов : Front: L R
Частота : 48,0 КГц
Частота кадров : 31,250 кадров/сек (1536 spf)
Метод сжатия : С потерями
Размер потока : 128 Мбайт (5%)
Язык : English
Default : Нет
Forced : Нет

Скриншоты

Релиз от: Temperest
Яндекс.Метрика
Рейтинг@Mail.ru