Зачинщики / Masterminds (Джаред Хесс / Jared Hess) [2016, Боевик, Криминал, Комедия, CamRip] DUB (звук c CamRip)

 

Создавать темы 02-Окт-2016 11:02

- Зачинщики / Masterminds - Производство: США, Broadway Video, Michaels-Goldwyn, Relativity Media
Жанр: Боевик, Криминал, Комедия
Режиссер: Джаред Хесс
Продюсер: Джон Голдвин, Лорн Майклз, Эндрю Панай
Актеры: Зак Галифианакис, Оуэн Уилсон, Кристен Уиг, Джейсон Судейкис, Кейт МакКиннон, Лесли Джонс, Мэри Элизабет Эллис, Кен Марино, Девин Рэтрей, Джон Дэйли
Описание:
Бывший клерк банка вместе со своей любовницей проворачивает дерзкое ограбление инкассаторской машины и забирает 17 миллионов баксов. Но по неопытности преступники-дебютанты оставляют на месте преступления столько следов и улик, что вряд ли смогут получить удовольствие от добычи


Возраст: 16+ (зрителям, достигшим 16 лет)
Рейтинг MPAA: PG-13 (детям до 13 лет просмотр нежелателен)
Дата мировой премьеры: 28 сентября 2016 года
Дата российской премьеры: 29 сентября 2016 года "Парадиз"
Продолжительность: 01:23:50
Качество видео: CamRip
Язык: Русский
Перевод: Дублированный
Реклама: Присутствуют аудио и видео вставки рекламы
Видео: Xvid, 720х304, ~1938 kbps
Аудио: AC3, 2 ch, 384 kbps, CBR

Mediainfo:

Общее
Полное имя                               : ZaCHinSChiKi.2016.D.CAMRip.14OOMB_KOSHARA.avi
Формат                                   : AVI
Формат/Информация                        : Audio Video Interleave
Размер файла                             : 1,37 Гбайт
Продолжительность                        : 1 ч. 23 м.
Общий поток                              : 2334 Кбит/сек
Программа кодирования                    : VirtualDubMod 1.5.10.2 (build 2540/release)
Библиотека кодирования                   : VirtualDubMod build 2540/release
Видео
Идентификатор                            : 0
Формат                                   : MPEG-4 Visual
Профиль формата                          : Advanced [email protected]
Параметр BVOP формата                    : 2
Параметр QPel формата                    : Нет
Параметр GMC формата                     : Без точки перехода
Параметр матрицы формата                 : Выборочная
Идентификатор кодека                     : XVID
Идентификатор кодека/Подсказка           : XviD
Продолжительность                        : 1 ч. 23 м.
Битрейт                                  : 1938 Кбит/сек
Ширина                                   : 720 пикселей
Высота                                   : 304 пикселя
Соотношение сторон                       : 2,35:1
Частота кадров                           : 29,970 (30000/1001) кадров/сек
Цветовое пространство                    : YUV
Субдискретизация насыщенности            : 4:2:0
Битовая глубина                          : 8 бит
Тип развёртки                            : Прогрессивная
Метод сжатия                             : С потерями
Бит/(Пиксели*Кадры)                      : 0.295
Размер потока                            : 1,13 Гбайт (83%)
Библиотека кодирования                   : XviD 1.2.1 (UTC 2008-12-04)
Аудио
Идентификатор                            : 1
Формат                                   : AC-3
Формат/Информация                        : Audio Coding 3
Расширение режима                        : CM (complete main)
Параметр Endianness формата              : Big
Идентификатор кодека                     : 2000
Продолжительность                        : 1 ч. 23 м.
Вид битрейта                             : Постоянный
Битрейт                                  : 384 Кбит/сек
Каналы                                   : 2 канала
Расположение каналов                     : Front: L R
Частота                                  : 48,0 КГц
Частота кадров                           : 31,250 кадров/сек (1536 spf)
Метод сжатия                             : С потерями
Размер потока                            : 230 Мбайт (16%)
Выравнивание                             : Разделение по промежуткам
Продолжительность промежутка             : 33  мс. (1,00 видеокадр)
Время предзагрузки промежутка            : 500  мс.
Скриншоты:
Яндекс.Метрика
Рейтинг@Mail.ru