Кровный отец / Blood Father (Жан-Франсуа Рише / Jean-François Richet) [2016, Боевик, Триллер, BDRip, 720p] MVO ("Paradox" & Omskbird records)

 

Создавать темы 01-Окт-2016 04:43

- Кровный отец / Blood Father -- Производство: Франция, Why Not Productions
Жанр: Боевик, Триллер
Режиссер: Жан-Франсуа Рише
Актеры: Мэл Гибсон, Эрин Мориарти, Диего Луна, Майкл Паркс, Уильям Х. Мэйси, Мигель Сандовал, Дейл Дикки, Ричард Кебрал, Дэниэл Монкада, Райан Дорси
Описание:
Бывший заключенный, раньше не участвовавший в воспитании дочери, узнав о том, что его дочь преследуют наркоторговцы и жаждут ее смерти, решил помочь ей с проблемами.


Рейтинг MPAA: R (лицам до 17 лет обязательно присутствие взрослого)
Дата мировой премьеры: 21 мая 2016
Дата российской премьеры: 21 мая 2016
Релиз от: walledol
Продолжительность: 01:28:12
Качество видео: BDRip SAMPLE
Перевод: Многоголосый закадровый, профессиональный ("Paradox" & Omskbird records)
Язык субтитров: Английский
Вид субтитров: Вшитые отключаемые
Видео: AVC/H.264, 1280x536, ~4900 kbps
Аудио 1: AC3, 6 ch, 448 kbps, CBR - Русский
Аудио 2: DTS, 6 ch, 1510 kbps, CBR - Английский

Mediainfo:

Общее
Уникальный идентификатор                 : 212004227725924468432594403917741636476 (0x9F7E876FE9B1C6729760AE691B573B7C)
Полное имя                               : Blood Father.2016.BDRip.720p.mkv
Формат                                   : Matroska
Версия формата                           : Version 2
Размер файла                             : 4,22 Гбайт
Продолжительность                        : 1 ч. 28 м.
Общий поток                              : 6855 Кбит/сек
Название фильма                          : Blood.Father.2016.720p
Дата кодирования                         : UTC 2016-09-30 22:00:35
Программа кодирования                    : mkvmerge v4.0.0 ('The Stars were mine') сборка от Jun  6 2010 16:18:42
Библиотека кодирования                   : libebml v1.0.0 + libmatroska v1.0.0
Видео
Идентификатор                            : 1
Формат                                   : AVC
Формат/Информация                        : Advanced Video Codec
Профиль формата                          : [url=mailto:[email protected]][email protected][/url]
Параметр CABAC формата                   : Да
Параметр ReFrames формата                : 12 кадров
Идентификатор кодека                     : V_MPEG4/ISO/AVC
Продолжительность                        : 1 ч. 28 м.
Битрейт                                  : 4900 Кбит/сек
Ширина                                   : 1280 пикселей
Высота                                   : 536 пикселей
Соотношение сторон                       : 2,40:1
Режим частоты кадров                     : Постоянный
Частота кадров                           : 23,976 (24000/1001) кадра/сек
Цветовое пространство                    : YUV
Субдискретизация насыщенности            : 4:2:0
Битовая глубина                          : 8 бит
Тип развёртки                            : Прогрессивная
Бит/(Пиксели*Кадры)                      : 0.298
Размер потока                            : 2,93 Гбайт (69%)
Библиотека кодирования                   : x264 core 148 r2665kMod a01e339
Настройки программы                      : cabac=1 / ref=12 / deblock=1:-3:-3 / analyse=0x3:0x133 / me=umh / subme=11 / psy=1 / fade_compensate=0.00 / psy_rd=1.05:0.00 / mixed_ref=1 / me_range=32 / chroma_me=1 / trellis=2 / 8x8dct=1 / cqm=0 / deadzone=21,11 / fast_pskip=0 / chroma_qp_offset=-2 / threads=17 / lookahead_threads=2 / sliced_threads=0 / nr=0 / decimate=0 / interlaced=0 / bluray_compat=0 / constrained_intra=0 / fgo=0 / bframes=8 / b_pyramid=2 / b_adapt=2 / b_bias=0 / direct=3 / weightb=1 / open_gop=0 / weightp=2 / keyint=240 / keyint_min=24 / scenecut=40 / intra_refresh=0 / rc=2pass / mbtree=0 / bitrate=4900 / ratetol=1.0 / qcomp=0.70 / qpmin=0 / qpmax=69 / qpstep=4 / cplxblur=20.0 / qblur=0.5 / ip_ratio=1.20 / pb_ratio=1.20 / aq=3:0.85
Язык                                     : English
Default                                  : Нет
Forced                                   : Нет
Аудио #1
Идентификатор                            : 2
Формат                                   : AC-3
Формат/Информация                        : Audio Coding 3
Расширение режима                        : CM (complete main)
Параметр Endianness формата              : Big
Идентификатор кодека                     : A_AC3
Продолжительность                        : 1 ч. 28 м.
Вид битрейта                             : Постоянный
Битрейт                                  : 448 Кбит/сек
Каналы                                   : 6 каналов
Расположение каналов                     : Front: L C R, Side: L R, LFE
Частота                                  : 48,0 КГц
Частота кадров                           : 31,250 кадров/сек (1536 spf)
Метод сжатия                             : С потерями
Размер потока                            : 283 Мбайт (7%)
Заголовок                                : "Paradox" & Omskbird records
Язык                                     : Russian
Default                                  : Да
Forced                                   : Да
Аудио #2
Идентификатор                            : 3
Формат                                   : DTS
Формат/Информация                        : Digital Theater Systems
Режим                                    : 16
Параметр Endianness формата              : Big
Идентификатор кодека                     : A_DTS
Продолжительность                        : 1 ч. 28 м.
Вид битрейта                             : Постоянный
Битрейт                                  : 1509 Кбит/сек
Каналы                                   : 6 каналов
Расположение каналов                     : Front: L C R, Side: L R, LFE
Частота                                  : 48,0 КГц
Частота кадров                           : 93,750 кадра/сек (512 spf)
Битовая глубина                          : 24 бит
Метод сжатия                             : С потерями
Задержка видео                           : 11 мс.
Размер потока                            : 952 Мбайт (22%)
Язык                                     : English
Default                                  : Нет
Forced                                   : Нет
Текст
Идентификатор                            : 4
Формат                                   : UTF-8
Идентификатор кодека                     : S_TEXT/UTF8
Идентификатор кодека/Информация          : UTF-8 Plain Text
Язык                                     : English
Default                                  : Нет
Forced                                   : Нет
Меню
00:00:00.000                             : en:00:00:00.000
00:07:02.797                             : en:00:07:02.797
00:10:16.741                             : en:00:10:16.741
00:15:59.584                             : en:00:15:59.584
00:22:02.196                             : en:00:22:02.196
00:28:58.695                             : en:00:28:58.695
00:32:28.947                             : en:00:32:28.947
00:38:43.112                             : en:00:38:43.112
00:45:11.584                             : en:00:45:11.584
00:48:45.839                             : en:00:48:45.839
00:52:44.369                             : en:00:52:44.369
00:57:36.328                             : en:00:57:36.328
01:02:32.707                             : en:01:02:32.707
01:07:51.734                             : en:01:07:51.734
01:12:41.607                             : en:01:12:41.607
01:20:57.561                             : en:01:20:57.561
Скриншоты:
Яндекс.Метрика
Рейтинг@Mail.ru