[ Сегодня на трекере фрилич! Идет свободное скачивание без начисления Download ]

600 миль / 600 Millas (Гэбриел Рипштейн / Gabriel Ripstein) [2016 г., триллер, драма, BDRip, 720p] AVO [Антон Карповский]

 

Создавать темы 01-Окт-2016 04:43

-600 миль / 600 Millas-- Производство: Мексика, США
Год выпуска: 2016 г.
Жанр: триллер, драма
Продолжительность: 01:20:28Мировая премьера: 6 февраля 2015
Перевод: Авторский (одноголосый, закадровый) [Антон Карповский]
Режиссер: Гэбриел Рипштейн / Gabriel Ripstein-В ролях: Тим Рот, Кристиан Феррер, Моника дель Кармен, Крэйг Хенсли, Харрис Кендалл, Грег Лутс, Фаусто Олмос Рентерия-Описание: Агент по борьбе с незаконным оборотом алкоголя, табака и оружия Хэнк Харрис преследует Арнульфо Рубио — молодого человека, который торгует оружием между США и Мексикой. После того, как Харрис допускает грубую ошибку, Рубио принимает отчаянное решение: он похищает агента и увозит его в Мексику. И пока двое явных врагов медленно сближаются, их поджидает опасность. Единственный выход из ситуации — доверять друг другу.-
Качество видео: BDRip
Контейнер: MKV
Стандарт разрешения: 720p
Видео кодек: MPEG4 AVC
Аудио кодек: DTS
Видео: 1280x690 (1.85:1), 25.000 fps, MPEG-4 AVC ~9 860 kbps avg
Аудио: 48 kHz, Digital Theater Systems, 3/2 (L,C,R,l,r) + LFE ch, ~1509 kbps | RUS
Аудио #2: 48 kHz, Digital Theater Systems, 3/2 (L,C,R,l,r) + LFE ch, ~1509 kbps | SPA
Исходник: Blu-Ray (FRA) - 600.Miles.2015.COMPLETE.FR.BLURAYCубтитры: испанские, английские, французские
Формат субтитров: softsub (SSA/ASS)
Доп. информация о субтитрах: включаемые

Награды

Берлинский кинофестиваль, 2015 год
Победитель (1):
Лучший дебют ( Гэбриел Рипштейн )
Сан-Себастьян, 2015 год
Номинации (1):
Премия программы «Горизонты»

Media Info

General
Уникальный идентификатор : 187939009286505921885993159978625476470 (0x8D63BC8FDF9D20088FA63214B66F2776)
Полное имя : 600.Millas.2015.BDRip.720p-ylnian.mkv
Формат : Matroska
Версия формата : Version 4 / Version 2
Размер файла : 7,24 Гбайт
Продолжительность : 1 ч. 20 м.
Общий поток : 12,9 Мбит/сек
Название фильма : 600.Millas.2015.BDRip.720p-ylnian
Дата кодирования : UTC 2016-09-30 11:19:30
Программа кодирования : mkvmerge v9.3.1 ('Mask Machine') 64bit
Библиотека кодирования : libebml v1.3.4 + libmatroska v1.4.5Видео
Идентификатор : 1
Формат : AVC
Формат/Информация : Advanced Video Codec
Профиль формата : [email protected]/* */
Параметр CABAC формата : Да
Параметр ReFrames формата : 9 кадров
Идентификатор кодека : V_MPEG4/ISO/AVC
Продолжительность : 1 ч. 20 м.
Битрейт : 9860 Кбит/сек
Ширина : 1280 пикселей
Высота : 690 пикселей
Соотношение сторон : 1,85:1
Режим частоты кадров : Постоянный
Частота кадров : 25,000 кадров/сек
Цветовое пространство : YUV
Субдискретизация насыщенности : 4:2:0
Битовая глубина : 8 бит
Тип развёртки : Прогрессивная
Бит/(Пиксели*Кадры) : 0.447
Размер потока : 5,54 Гбайт (77%)
Заголовок : 600.Millas.2015.BDRip.720p-ylnian
Библиотека кодирования : x264 core 148 r2638 7599210
Настройки программы : cabac=1 / ref=9 / deblock=1:-3:-3 / analyse=0x3:0x133 / me=umh / subme=11 / psy=1 / psy_rd=1.05:0.00 / mixed_ref=1 / me_range=48 / chroma_me=1 / trellis=2 / 8x8dct=1 / cqm=0 / deadzone=21,11 / fast_pskip=0 / chroma_qp_offset=-4 / threads=12 / lookahead_threads=3 / sliced_threads=0 / nr=0 / decimate=1 / interlaced=0 / bluray_compat=0 / constrained_intra=0 / bframes=10 / b_pyramid=2 / b_adapt=2 / b_bias=0 / direct=2 / weightb=1 / open_gop=0 / weightp=2 / keyint=230 / keyint_min=22 / scenecut=40 / intra_refresh=0 / rc_lookahead=60 / rc=crf / mbtree=0 / crf=15.3 / qcomp=0.60 / qpmin=0 / qpmax=69 / qpstep=4 / vbv_maxrate=62500 / vbv_bufsize=78125 / crf_max=0.0 / nal_hrd=none / filler=0 / ip_ratio=1.40 / pb_ratio=1.30 / aq=2:0.80
Язык : Spanish
Default : Да
Forced : ДаАудио #1
Идентификатор : 2
Формат : DTS
Формат/Информация : Digital Theater Systems
Режим : 16
Параметр Endianness формата : Big
Идентификатор кодека : A_DTS
Продолжительность : 1 ч. 20 м.
Вид битрейта : Постоянный
Битрейт : 1509 Кбит/сек
Каналы : 6 каналов
Расположение каналов : Front: L C R, Side: L R, LFE
Частота : 48,0 КГц
Частота кадров : 93,750 кадра/сек (512 spf)
Битовая глубина : 24 бит
Метод сжатия : С потерями
Размер потока : 868 Мбайт (12%)
Заголовок : AVO (DTS 5.1 1509 kbps)
Язык : Russian
Default : Да
Forced : ДаАудио #2
Идентификатор : 3
Формат : DTS
Формат/Информация : Digital Theater Systems
Режим : 16
Параметр Endianness формата : Big
Идентификатор кодека : A_DTS
Продолжительность : 1 ч. 20 м.
Вид битрейта : Постоянный
Битрейт : 1509 Кбит/сек
Каналы : 6 каналов
Расположение каналов : Front: L C R, Side: L R, LFE
Частота : 48,0 КГц
Частота кадров : 93,750 кадра/сек (512 spf)
Битовая глубина : 24 бит
Метод сжатия : С потерями
Размер потока : 868 Мбайт (12%)
Заголовок : DTS 5.1 1509 kbps
Язык : Spanish
Default : Нет
Forced : НетТекст #1
Идентификатор : 4
Формат : UTF-8
Идентификатор кодека : S_TEXT/UTF8
Идентификатор кодека/Информация : UTF-8 Plain Text
Продолжительность : 1 ч. 17 м.
Битрейт : 19 бит/сек
Count of elements : 401
Размер потока : 11,2 Кбайт (0%)
Язык : Spanish
Default : Нет
Forced : НетТекст #2
Идентификатор : 5
Формат : UTF-8
Идентификатор кодека : S_TEXT/UTF8
Идентификатор кодека/Информация : UTF-8 Plain Text
Продолжительность : 1 ч. 17 м.
Битрейт : 32 бит/сек
Count of elements : 765
Размер потока : 18,7 Кбайт (0%)
Язык : English
Default : Нет
Forced : НетТекст #3
Идентификатор : 6
Формат : UTF-8
Идентификатор кодека : S_TEXT/UTF8
Идентификатор кодека/Информация : UTF-8 Plain Text
Продолжительность : 1 ч. 18 м.
Битрейт : 29 бит/сек
Count of elements : 779
Размер потока : 16,7 Кбайт (0%)
Язык : French
Default : Нет
Forced : НетМеню
00:00:00.000 : es:00:00:00.000
00:09:05.200 : es:00:09:05.200
00:15:22.720 : es:00:15:22.720
00:21:31.320 : es:00:21:31.320
00:26:01.840 : es:00:26:01.840
00:29:24.720 : es:00:29:24.720
00:36:55.160 : es:00:36:55.160
00:46:14.520 : es:00:46:14.520
00:55:06.720 : es:00:55:06.720
01:02:28.280 : es:01:02:28.280
01:08:00.440 : es:01:08:00.440
01:14:47.520 : es:01:14:47.520

Скриншот c названием фильма

Скриншоты

Трейлер

Яндекс.Метрика
Рейтинг@Mail.ru