Любить нельзя ненавидеть [серии 1-8 из 8] (Флюза Фархшатов) [2016, Мелодрама, HDTVRip]

 

Создавать темы 30-Сен-2016 15:36

- Любить нельзя ненавидеть (серии 1-8 из 8) - Производство: Россия / Русское, Студия "Жар-птица"
Жанр: Мелодрама
Режиссер: Флюза Фархшатов
Актеры: Мария Машкова, Юрий Цурило, Сергей Перегудов, Сергей Марин, Евгения Дмитриева, Витас Эйзенах, Джан Бадмаев, Алёна Чехова, Елена Медведева и др...
Описание:
Отставной военный Иван Горностаев и его супруга Ольга построили своё счастье собственными руками, они владеют небольшой гостиницей в лесных угодьях неподалёку от областного центра, не испытывают недостатка в клиентах из числа рыбаков и охотников и по праву гордятся достигнутым благополучием. Их сын Владимир - известный в городе нейрохирург - тоже вполне успешен. Не меньше оснований для счастья имеет молодая чета Сабуровых - начинающий прокурор Алина и адвокат Дмитрий. Все они энергичные, не боящиеся трудностей - настоящий современный средний класс.


Возраст: 12+ (зрителям, достигшим 12 лет)
Продолжительность: ~ 00:44:00 серия
Качество видео: HDTVRip
Видео: Xvid, 720x400 (16:9), ~1519 Kbps
Аудио: AC3, 2 ch, 192 Kbps, CBR

Mediainfo:

Общее
Полное имя                               : D:\Мои фильмы\Ljubit'_nel'zja_nenavidet'_1-8iz8_2016_XviD_HDTVRip\Ljubit'_nel'zja_nenavidet'_1_HDTVRip.avi
Формат                                   : AVI
Формат/Информация                        : Audio Video Interleave
Размер файла                             : 555 Мбайт
Продолжительность                        : 45 м. 7 с.
Общий поток                              : 1721 Кбит/сек
Программа кодирования                    : VirtualDubMod 1.5.10.3  [url=http://www.virtualdub-fr.org]www.virtualdub-fr.org[/url] || (build 2550/release)
Библиотека кодирования                   : VirtualDub build 35491/release
Видео
Идентификатор                            : 0
Формат                                   : MPEG-4 Visual
Профиль формата                          : Advanced [email protected]
Параметр BVOP формата                    : 2
Параметр QPel формата                    : Нет
Параметр GMC формата                     : Без точки перехода
Параметр матрицы формата                 : Default (H.263)
Идентификатор кодека                     : XVID
Идентификатор кодека/Подсказка           : XviD
Продолжительность                        : 45 м. 7 с.
Битрейт                                  : 1519 Кбит/сек
Ширина                                   : 720 пикселей
Высота                                   : 400 пикселей
Соотношение сторон                       : 16:9
Частота кадров                           : 25,000 кадров/сек
Цветовое пространство                    : YUV
Субдискретизация насыщенности            : 4:2:0
Битовая глубина                          : 8 бит
Тип развёртки                            : Прогрессивная
Метод сжатия                             : С потерями
Бит/(Пиксели*Кадры)                      : 0.211
Размер потока                            : 490 Мбайт (88%)
Библиотека кодирования                   : XviD 67
Аудио
Идентификатор                            : 1
Формат                                   : AC-3
Формат/Информация                        : Audio Coding 3
Расширение режима                        : CM (complete main)
Параметр Endianness формата              : Big
Идентификатор кодека                     : 2000
Продолжительность                        : 45 м. 7 с.
Вид битрейта                             : Постоянный
Битрейт                                  : 192 Кбит/сек
Каналы                                   : 2 канала
Расположение каналов                     : Front: L R
Частота                                  : 48,0 КГц
Частота кадров                           : 31,250 кадров/сек (1536 spf)
Метод сжатия                             : С потерями
Размер потока                            : 62,0 Мбайт (11%)
Выравнивание                             : Соединение по промежуткам
Продолжительность промежутка             : 40  мс. (1,00 видеокадр)
Время предзагрузки промежутка            : 512  мс.
Скриншоты:
Яндекс.Метрика
Рейтинг@Mail.ru