Эквилибриум / Equilibrium (Курт Уиммер) [2002 / Фантастика, боевик, триллер, драма / BDRip 1080p от 0ptimus | D, P, A | Open Matte]

 

Создавать темы 06-Янв-2014 09:59

Информация о фильме
Название: Эквилибриум
Оригинальное название: Equilibrium
Год выхода: 2002
Жанр: Фантастика, боевик, триллер, драма
Режиссер: Курт Уиммер
В ролях: Кристиан Бэйл, Шон Бин, Эмили Уотсон, Тэй Диггз, Энгус Макфадьен, Шон Пертуи, Уильям Фихтнер, Джон Кеог, Дэвид Барраш, Дирк Мартенс, Кристиан Карманн, Мэттью Харбор, Эмили Сьеверт, Доминик Пёрселл, Майк Смит, Флориан Фитц, Дэнни Ли Кларк, Франческо Кабрас, Курт Уиммер, Анатоль Таубман, Брайан Конли, Алекса Саммер, Брайан В. Кук, Мехмет Куртулус, Дэвид Хеммингс, Клаус Шиндл
О фильме:
Действие происходит в будущем, когда люди лишены возможности выражать какие-то эмоции, потому, что они запрещены. Это — та цена, которую человечество платит за устранение из своей жизни войны. Теперь книги, искусство и музыка находятся вне закона. А любое чувство уже преступление, наказуемое смертью. Для проведения в жизнь существующего правила используется принудительное применение лекарства «прозиум». Правительственный агент Джон Престон борется с теми, кто нарушает правила. В один прекрасный момент он забывает принять очередную дозу лекарства и с ним происходит духовное превращение, что приводит его к противоречию с самим собой и с начальством.

Страна: США
Студия: Blue Tulip, Dimension Films
Продолжительность: 01:46:50
Перевод: Дублированный, профессиональный (многоголосый закадровый), авторский (одноголосый закадровый)
Файл
Кодек: h.264
Качество: BDRip 1080p
Видео: 16.8 Мбит/с, 1920x1080, 23.976 кадр/с
Звук:
• №1: Русский (AC3, 6 ch, 640 Кбит/с) Дублированный [Мосфильм-Мастер по заказу компании WEST]
• №2: Русский (AC3, 6 ch, 448 Кбит/с) Профессиональный многоголосый [Киномания]
• №3: Русский (AC3, 6 ch, 640 Кбит/с) Авторский одноголосый [Юрий Живов]
• №4: Русский (AC3, 6 ch, 640 Кбит/с) Авторский одноголосый [Владимир Королев]
• №5: Русский (AC3, 6 ch, 448 Кбит/с) Авторский одноголосый [Дмитрий Строев]
• №6: Русский (AC3, 6 ch, 640 Кбит/с) Авторский одноголосый [Евгений Рудой]
• №7: Украинский (AC3, 2 ch, 192 Кбит/с) Профессиональный многоголосый
• №8: Английский (AC3, 6 ch, 640 Кбит/с)
Субтитры: Русские, английские

MediaInfo

-------------------------------------------------------------------------
x264 [info]: frame I:1117 Avg QP:15.30 size:192794
x264 [info]: frame P:34984 Avg QP:16.15 size:125213
x264 [info]: frame B:117596 Avg QP:18.07 size: 76190
-------------------------------------------------------------------------
Полное имя : Equilibrium.-Open.Matte-.2002.x264.BDRip.(1080p).0ptimus.mkv
Формат : Matroska
Версия формата : Version 4 / Version 2
Размер файла : 15,8 Гбайт
Продолжительность : 1 ч. 46 м.
Общий поток : 21,1 Мбит/сек
Название фильма : Эквилибриум | Equilibrium [2002] Open Matte -=BDRip (1080p) by 0ptimus=-
Дата кодирования : UTC 2014-01-04 13:54:05
Программа кодирования : mkvmerge v6.6.0 ('The Edge Of The In Between') built on Dec 1 2013 17:55:00
Библиотека кодирования : libebml v1.3.0 + libmatroska v1.4.1
Видео
Идентификатор : 1
Формат : AVC
Формат/Информация : Advanced Video Codec
Профиль формата : [email protected]
Параметр CABAC формата : Да
Параметр ReFrames формата : 4 кадра
Идентификатор кодека : V_MPEG4/ISO/AVC
Продолжительность : 1 ч. 46 м.
Битрейт : 16,8 Мбит/сек
Ширина : 1920 пикселей
Высота : 1080 пикселей
Соотношение сторон : 16:9
Частота кадров : 23,976 кадра/сек
Цветовое пространство : YUV
Субдискретизация насыщенности : 4:2:0
Битовая глубина : 8 бит
Тип развёртки : Прогрессивная
Бит/(Пиксели*Кадры) : 0.339
Размер потока : 12,3 Гбайт (78%)
Заголовок : Rip by 0ptimus
Библиотека кодирования : x264 core 133 r2334 a3ac64b
Настройки программы : cabac=1 / ref=4 / deblock=1:-3:-3 / analyse=0x3:0x113 / me=umh / subme=11 / psy=1 / psy_rd=1.00:0.20 / mixed_ref=1 / me_range=32 / chroma_me=1 / trellis=2 / 8x8dct=1 / cqm=0 / deadzone=21,11 / fast_pskip=0 / chroma_qp_offset=-3 / threads=4 / lookahead_threads=1 / sliced_threads=0 / nr=0 / decimate=0 / interlaced=0 / bluray_compat=0 / constrained_intra=0 / bframes=9 / b_pyramid=2 / b_adapt=2 / b_bias=0 / direct=3 / weightb=1 / open_gop=0 / weightp=2 / keyint=240 / keyint_min=23 / scenecut=40 / intra_refresh=0 / rc_lookahead=40 / rc=2pass / mbtree=0 / bitrate=16838 / ratetol=1.0 / qcomp=0.60 / qpmin=0 / qpmax=69 / qpstep=4 / cplxblur=20.0 / qblur=0.5 / vbv_maxrate=50000 / vbv_bufsize=62500 / nal_hrd=none / ip_ratio=1.40 / pb_ratio=1.30 / aq=1:1.00
Язык : English
Аудио #1
Идентификатор : 2
Формат : AC-3
Формат/Информация : Audio Coding 3
Расширение режима : CM (complete main)
Идентификатор кодека : A_AC3
Продолжительность : 1 ч. 46 м.
Вид битрейта : Постоянный
Битрейт : 640 Кбит/сек
Каналы : 6 каналов
Расположение каналов : Front: L C R, Side: L R, LFE
Частота : 48,0 КГц
Битовая глубина : 16 бит
Метод сжатия : С потерями
Размер потока : 489 Мбайт (3%)
Заголовок : Дублированный [Мосфильм-Мастер по заказу компании WEST] AC3 5.1 640 kbps
Язык : Russian
Аудио #2
Идентификатор : 3
Формат : AC-3
Формат/Информация : Audio Coding 3
Расширение режима : CM (complete main)
Идентификатор кодека : A_AC3
Продолжительность : 1 ч. 46 м.
Вид битрейта : Постоянный
Битрейт : 448 Кбит/сек
Каналы : 6 каналов
Расположение каналов : Front: L C R, Side: L R, LFE
Частота : 48,0 КГц
Битовая глубина : 16 бит
Метод сжатия : С потерями
Размер потока : 342 Мбайт (2%)
Заголовок : Многоголосый закадровый [Киномания] AC3 5.1 448 kbps
Язык : Russian
Аудио #3
Идентификатор : 4
Формат : AC-3
Формат/Информация : Audio Coding 3
Расширение режима : CM (complete main)
Идентификатор кодека : A_AC3
Продолжительность : 1 ч. 46 м.
Вид битрейта : Постоянный
Битрейт : 640 Кбит/сек
Каналы : 6 каналов
Расположение каналов : Front: L C R, Side: L R, LFE
Частота : 48,0 КГц
Битовая глубина : 16 бит
Метод сжатия : С потерями
Размер потока : 489 Мбайт (3%)
Заголовок : Авторский [Юрий Живов] AC3 5.1 640 kbps
Язык : Russian
Аудио #4
Идентификатор : 5
Формат : AC-3
Формат/Информация : Audio Coding 3
Расширение режима : CM (complete main)
Идентификатор кодека : A_AC3
Продолжительность : 1 ч. 46 м.
Вид битрейта : Постоянный
Битрейт : 640 Кбит/сек
Каналы : 6 каналов
Расположение каналов : Front: L C R, Side: L R, LFE
Частота : 48,0 КГц
Битовая глубина : 16 бит
Метод сжатия : С потерями
Размер потока : 489 Мбайт (3%)
Заголовок : Авторский [Владимир Королев] AC3 5.1 640 kbps
Язык : Russian
Аудио #5
Идентификатор : 6
Формат : AC-3
Формат/Информация : Audio Coding 3
Расширение режима : CM (complete main)
Идентификатор кодека : A_AC3
Продолжительность : 1 ч. 46 м.
Вид битрейта : Постоянный
Битрейт : 448 Кбит/сек
Каналы : 6 каналов
Расположение каналов : Front: L C R, Side: L R, LFE
Частота : 48,0 КГц
Битовая глубина : 16 бит
Метод сжатия : С потерями
Размер потока : 342 Мбайт (2%)
Заголовок : Авторский [Дмитрий Строев] AC3 5.1 448 kbps
Язык : Russian
Аудио #6
Идентификатор : 7
Формат : AC-3
Формат/Информация : Audio Coding 3
Расширение режима : CM (complete main)
Идентификатор кодека : A_AC3
Продолжительность : 1 ч. 46 м.
Вид битрейта : Постоянный
Битрейт : 640 Кбит/сек
Каналы : 6 каналов
Расположение каналов : Front: L C R, Side: L R, LFE
Частота : 48,0 КГц
Битовая глубина : 16 бит
Метод сжатия : С потерями
Размер потока : 489 Мбайт (3%)
Заголовок : Авторский [Евгений Рудой] AC3 5.1 640 kbps
Язык : Russian
Аудио #7
Идентификатор : 8
Формат : AC-3
Формат/Информация : Audio Coding 3
Расширение режима : CM (complete main)
Идентификатор кодека : A_AC3
Продолжительность : 1 ч. 46 м.
Вид битрейта : Постоянный
Битрейт : 192 Кбит/сек
Каналы : 2 канала
Расположение каналов : Front: L R
Частота : 48,0 КГц
Битовая глубина : 16 бит
Метод сжатия : С потерями
Размер потока : 147 Мбайт (1%)
Заголовок : Многоголосый закадровый AC3 2.0 192 kbps
Язык : Ukrainian
Аудио #8
Идентификатор : 9
Формат : AC-3
Формат/Информация : Audio Coding 3
Расширение режима : CM (complete main)
Идентификатор кодека : A_AC3
Продолжительность : 1 ч. 46 м.
Вид битрейта : Постоянный
Битрейт : 640 Кбит/сек
Каналы : 6 каналов
Расположение каналов : Front: L C R, Side: L R, LFE
Частота : 48,0 КГц
Битовая глубина : 16 бит
Метод сжатия : С потерями
Размер потока : 489 Мбайт (3%)
Заголовок : AC3 5.1 640 kbps
Язык : English
Текст #1
Идентификатор : 10
Формат : UTF-8
Идентификатор кодека : S_TEXT/UTF8
Идентификатор кодека/Информация : UTF-8 Plain Text
Язык : Russian
Текст #2
Идентификатор : 11
Формат : UTF-8
Идентификатор кодека : S_TEXT/UTF8
Идентификатор кодека/Информация : UTF-8 Plain Text
Язык : English
Меню
00:00:00.000 : en:Man's Inhumanity to Man
00:07:29.906 : en:An Unfeeling Society
00:18:12.883 : en:The Prodigal Cleric
00:24:11.199 : en:A Heavy Cost
00:30:07.263 : en:A New Morning
00:36:50.166 : en:Existence and Purpose
00:46:06.555 : en:Awakening Emotions
00:53:40.425 : en:Signs of Remorse
01:02:20.361 : en:Doubting Father?
01:09:31.207 : en:A Big Mistake
01:11:40.671 : en:"He's A Sense Offender!"
01:19:00.235 : en:Questions for Mary
01:27:00.131 : en:Contacting the Resistance
01:34:23.157 : en:Incineration
01:40:17.386 : en:Nothing to Hide

Скриншоты

Создавать темы 06-Янв-2014 14:49 (спустя 4 часа)

Огромное спасибо! Один из моих любимых фильмов да ещё в таком качестве, возьму в коллекцию.

Создавать темы 11-Янв-2014 11:38 (спустя 4 дня)

Борис писал(а):

6923Огромное спасибо! Один из моих любимых фильмов да ещё в таком качестве, возьму в коллекцию.
Не за что, если будут заказы, пишите в лс, либо в skype Pitbull_156
Яндекс.Метрика
Рейтинг@Mail.ru