Тарзан. Легенда / The Legend of Tarzan (Дэвид Йэтс / David Yates) [2016, Боевик, Драма, Мелодрама, Приключения, BDRip, 1080p-LQ] DUB (iTunes)

 

Создавать темы 29-Сен-2016 19:57

- Тарзан. Легенда / The Legend of Tarzan - Производство: США, Dark Horse Entertainment, Jerry Weintraub Productions
Жанр: Боевик, Драма, Мелодрама, Приключения
Режиссер: Дэвид Йэтс
Актеры: Александр Скашгод, Марго Робби, Кристоф Вальц, Сэмюэль Л. Джексон, Джимон Хонсу, Джон Херт, Саймон Расселл Бил, Элла Пернелл
Описание:
Приспособившийся к жизни в Лондоне Тарзан возвращается в свой бывший дом, в джунгли, чтобы разобраться в том, что происходит в лагере горнодобывающей компании.


Возраст: 12+ (зрителям, достигшим 12 лет)
Рейтинг MPAA: PG-13 (детям до 13 лет просмотр нежелателен)
Дата мировой премьеры: 27 июня 2016
Дата российской премьеры: 30 июня 2016, «Каро-Премьер»
Продолжительность: 01:49:59
Качество видео: BDRip СЭМПЛ
Перевод: Дублированный (iTunes)
Видео: AVC/H.264, 1920x800 (2.40:1), ~5000 Kbps
Аудио: AC3, 6 ch, 384 Kbps

Mediainfo:

General
    Unique ID : 219690204659778980172895576254195534860 (0xA546CB5B7527FDDEAFB0A54BEA498C0C)
    Complete name : J:\Сборка\Тарзан. Легенда. - The Legend of Tarzan 2016 1080p BDRip.АС3.[iTunes]. x264 (1).mkv
    Format : Matroska
    Format version : Version 4 / Version 2
    File size : 4.12 GiB
    Duration : 1h 49mn
    Overall bit rate : 5 362 Kbps
    Encoded date : UTC 2016-09-25 11:23:23
    Writing application : mkvmerge v7.3.0 ('Nouages') 32bit built on Oct 22 2014 18:44:01
    Writing library : libebml v1.3.0 + libmatroska v1.4.1
    DURATION : 01:49:57.824000000
    NUMBER_OF_FRAMES : 206182
    NUMBER_OF_BYTES : 316695552
    _STATISTICS_WRITING_APP : mkvmerge v7.3.0 ('Nouages') 32bit built on Oct 22 2014 18:44:01
    _STATISTICS_WRITING_DATE_UTC : 2016-09-25 11:23:23
    _STATISTICS_TAGS : BPS DURATION NUMBER_OF_FRAMES NUMBER_OF_BYTES
  Video #1
    ID : 1
    Format : AVC
    Format/Info : Advanced Video Codec
    Format profile : [url=mailto:[email protected]][email protected][/url]
    Format settings, CABAC : Yes
    Format settings, ReFrames : 5 frames
    Codec ID : V_MPEG4/ISO/AVC
    Duration : 1h 49mn
    Bit rate : 5 000 Kbps
    Width : 1 920 pixels
    Height : 800 pixels
    Display aspect ratio : 2.40:1
    Frame rate mode : Constant
    Frame rate : 23.976 fps
    Color space : YUV
    Chroma subsampling : 4:2:0
    Bit depth : 8 bits
    Scan type : Progressive
    Bits/(Pixel*Frame) : 0.136
    Stream size : 3.74 GiB (91%)
    Writing library : x264 core 148 r2705 3f5ed56
    Encoding settings : cabac=1 / ref=5 / deblock=1:0:0 / analyse=0x3:0x133 / me=umh / subme=10 / psy=1 / psy_rd=1.00:0.15 / mixed_ref=1 / me_range=32 / chroma_me=1 / trellis=2 / 8x8dct=1 / cqm=0 / deadzone=21,11 / fast_pskip=1 / chroma_qp_offset=-3 / threads=25 / lookahead_threads=4 / sliced_threads=0 / nr=0 / decimate=1 / interlaced=0 / bluray_compat=0 / constrained_intra=0 / bframes=8 / b_pyramid=2 / b_adapt=2 / b_bias=0 / direct=3 / weightb=1 / open_gop=0 / weightp=2 / keyint=230 / keyint_min=23 / scenecut=40 / intra_refresh=0 / rc_lookahead=60 / rc=2pass / mbtree=1 / bitrate=5000 / ratetol=1.0 / qcomp=0.60 / qpmin=10 / qpmax=51 / qpstep=4 / cplxblur=20.0 / qblur=0.5 / vbv_maxrate=24000 / vbv_bufsize=24000 / nal_hrd=none / filler=0 / ip_ratio=1.40 / aq=1:1.00
    Language : English
    Default : Yes
    Forced : No
    Color primaries : BT.709
    Transfer characteristics : BT.709
    Matrix coefficients : BT.709
    DURATION : 01:49:58.843000000
    NUMBER_OF_FRAMES : 158214
    NUMBER_OF_BYTES : 4104635742
    _STATISTICS_WRITING_APP : mkvmerge v7.3.0 ('Nouages') 32bit built on Oct 22 2014 18:44:01
    _STATISTICS_WRITING_DATE_UTC : 2016-09-25 11:23:23
    _STATISTICS_TAGS : BPS DURATION NUMBER_OF_FRAMES NUMBER_OF_BYTES
  Audio #2
    ID : 2
    Format : AC-3
    Format/Info : Audio Coding 3
    Mode extension : CM (complete main)
    Format settings, Endianness : Big
    Codec ID : A_AC3
    Duration : 1h 49mn
    Bit rate mode : Constant
    Bit rate : 384 Kbps
    Channel(s) : 6 channels
    Channel positions : Front: L C R, Side: L R, LFE
    Sampling rate : 48.0 KHz
    Bit depth : 16 bits
    Compression mode : Lossy
    Stream size : 302 MiB (7%)
    Title : [iTunes]
    Default : Yes
    Forced : No
Скриншоты:

Дополнительные скриншоты:

Яндекс.Метрика
Рейтинг@Mail.ru