По следу / Jue di tao wang (Ренни Харлин / Renny Harlin) [2016 г., боевик, комедия, WEB-DLRip-AVC] MVO ["Paradox" & Omskbird records]

 

Создавать темы 29-Сен-2016 06:01

--По следу / Jue di tao wang--«Watch your backup»-- Производство: США, Китай, Гонконг, Cider Mill Pictures, Dasym Enetertainment
Год выпуска: 2016 г.
Жанр: боевик, комедия
Продолжительность: 01:47:46--Мировая премьера: 17 июля 2016--Перевод: Любительский (многоголосый закадровый) ["Paradox" & Omskbird records]--Режиссер: Ренни Харлин / Renny Harlin--В ролях: Джеки Чан, Джонни Ноксвилл, Бинбин Фань, Эрик Цан, Ив Торрес, Уинстон Чао, Ланьсинь Чжан, Майкл Вонг, Джоэль Адриан, Пьер Бурдо--Описание: Саманта, крестница честного полицейского Бенни, попадает в неприятности и оказывается в руках у преступного синдиката. Во главе этой преступной группировки стоит человек, за которым Бенни следил около десяти лет. Чтобы спасти Саманту, копу нужно поймать американского шулера и обменять его на девушку.-- --Качество видео: WEB-DLRip-AVC
Контейнер: MKV
Видео кодек: AVC/H.264
Аудио кодек: AC3
Видео: AVC, 1024x424 (2.40:1), 1559 kbps, 23,976 fps, 0,150 bpp
Аудио: 48 kHz, AC3 Dolby Digital, 2/0 (L,R) ch, ~384 kbps
Cубтитры: отсутствуют.

Media Info

Общее
Уникальный идентификатор : 191280831743356740996467985837121230724 (0x8FE7592149B273178FF0781171165784)
Полное имя : H:\Torrent2\Skiptrace.2016.WEB-DLRip-AVC.mkv
Формат : Matroska
Версия формата : Version 4 / Version 2
Размер файла : 1,46 Гбайт
Продолжительность : 1 ч. 47 м.
Общий поток : 1943 Кбит/сек
Дата кодирования : UTC 2016-09-28 04:35:39
Программа кодирования : mkvmerge v9.0.1 ('Obstacles') 64bit
Библиотека кодирования : libebml v1.3.3 + libmatroska v1.4.4Видео
Идентификатор : 1
Формат : AVC
Формат/Информация : Advanced Video Codec
Профиль формата : [email protected]/* */
Параметр CABAC формата : Да
Параметр ReFrames формата : 12 кадров
Идентификатор кодека : V_MPEG4/ISO/AVC
Продолжительность : 1 ч. 47 м.
Битрейт : 1559 Кбит/сек
Ширина : 1024 пикселя
Высота : 424 пикселя
Соотношение сторон : 2,40:1
Режим частоты кадров : Постоянный
Частота кадров : 23,976 (24000/1001) кадра/сек
Цветовое пространство : YUV
Субдискретизация насыщенности : 4:2:0
Битовая глубина : 8 бит
Тип развёртки : Прогрессивная
Бит/(Пиксели*Кадры) : 0.150
Размер потока : 1,17 Гбайт (80%)
Библиотека кодирования : x264 core 148 r2638 7599210
Настройки программы : cabac=1 / ref=12 / deblock=1:-3:-3 / analyse=0x3:0x113 / me=umh / subme=9 / psy=1 / psy_rd=1.00:0.00 / mixed_ref=1 / me_range=32 / chroma_me=1 / trellis=2 / 8x8dct=1 / cqm=0 / deadzone=21,11 / fast_pskip=1 / chroma_qp_offset=-2 / threads=12 / lookahead_threads=3 / sliced_threads=0 / nr=0 / decimate=1 / interlaced=0 / bluray_compat=0 / constrained_intra=0 / bframes=12 / b_pyramid=2 / b_adapt=2 / b_bias=10 / direct=1 / weightb=0 / open_gop=0 / weightp=2 / keyint=240 / keyint_min=23 / scenecut=40 / intra_refresh=0 / rc_lookahead=40 / rc=2pass / mbtree=1 / bitrate=1559 / ratetol=1.0 / qcomp=0.85 / qpmin=0 / qpmax=69 / qpstep=4 / cplxblur=20.0 / qblur=0.5 / ip_ratio=1.40 / aq=1:1.00
Язык : English
Default : Да
Forced : НетАудио
Идентификатор : 2
Формат : AC-3
Формат/Информация : Audio Coding 3
Расширение режима : CM (complete main)
Параметр Endianness формата : Big
Идентификатор кодека : A_AC3
Продолжительность : 1 ч. 47 м.
Вид битрейта : Постоянный
Битрейт : 384 Кбит/сек
Каналы : 2 канала
Расположение каналов : Front: L R
Частота : 48,0 КГц
Частота кадров : 31,250 кадров/сек (1536 spf)
Метод сжатия : С потерями
Размер потока : 296 Мбайт (20%)
Язык : Russian
Default : Да
Forced : Нет

Скриншоты

Трейлер
Яндекс.Метрика
Рейтинг@Mail.ru