Служанка / Agasshi (Пак Чхан-ук / Chan-wook Park) [2016 г., драма, мелодрама, WEBRip] Dub [Звук с TS] + Sub (Kor)

 

Создавать темы 29-Сен-2016 06:00

--Служанка / Agasshi--«Не доверяй никому»-- Производство: Корея Южная, Moho Films, Yong Film
Год выпуска: 2016 г.
Жанр: драма, мелодрама
Продолжительность: 02:24:45--Мировая премьера: 14 мая 2016
Российская премьера: 25 августа 2016, «Cinema Prestige»--Перевод: Профессиональный (полное дублирование) [Звук с TS]--Режиссер: Пак Чхан-ук / Chan-wook Park--В ролях: Ким Мин-хи, Ким Тхэ-ри, Ха Джон-у, Чо Джин-ун, Ким Хэ-сук, Мун Со-ри, Ли Ён-нё, Ли Дон-хви, Ю Мин-чхэ, Чо Ын-хён--Описание: 30-е годы прошлого столетия. Корея, оккупированная японцами. Мошенник по прозвищу Граф предлагает бедной девушке Соке поучаствовать в деле, обещая солидный заработок. План афериста следующий. В огромном поместье, не общаясь с внешним миром, живет богатая японка Хидеко. Однако ее дядя, контролирующий каждый шаг девушки, изредка устраивает приемы для местных аристократов. Граф рассчитывает очаровать Хидеко, сбежать с ней в Японию, жениться, объявить ее сумасшедшей, упечь в дурдом и завладеть всем богатством. А Соке должна ему помочь, нанявшись в услужение к Хидеко. Что она и сделала. Но внезапно идеальный замысел Графа оказался под угрозой.-- --Качество видео: WEBRip
Контейнер: AVI
Видео кодек: XviD
Аудио кодек: AC3
Видео: 720x304 (2.37:1), 24 fps, XviD build 50 ~1819 kbps avg, 0.35 bit/pixel
Аудио: 48 kHz, AC3 Dolby Digital, 2/0 (L,R) ch, ~192 kbps
Cубтитры: Корейские (хардсаб на японскую речь).

Media Info

Общее
Полное имя : H:\Torrent2\SlUjanka.2016.Dt.WEB-DLRip.21OOMB.avi
Формат : AVI
Формат/Информация : Audio Video Interleave
Профиль формата : OpenDML
Размер файла : 2,05 Гбайт
Продолжительность : 2 ч. 24 м.
Общий поток : 2023 Кбит/сек
Программа кодирования : VirtualDubMod 1.5.10.2 (build 2540/release)
Библиотека кодирования : VirtualDubMod build 2540/releaseВидео
Идентификатор : 0
Формат : MPEG-4 Visual
Профиль формата : Advanced [email protected]/* */
Параметр BVOP формата : 2
Параметр QPel формата : Нет
Параметр GMC формата : Без точки перехода
Параметр матрицы формата : Default (MPEG)
Идентификатор кодека : XVID
Идентификатор кодека/Подсказка : XviD
Продолжительность : 2 ч. 24 м.
Битрейт : 1819 Кбит/сек
Ширина : 720 пикселей
Высота : 304 пикселя
Соотношение сторон : 2,35:1
Частота кадров : 24,000 кадра/сек
Цветовое пространство : YUV
Субдискретизация насыщенности : 4:2:0
Битовая глубина : 8 бит
Тип развёртки : Прогрессивная
Метод сжатия : С потерями
Бит/(Пиксели*Кадры) : 0.346
Размер потока : 1,84 Гбайт (90%)
Библиотека кодирования : XviD 1.2.1 (UTC 2008-12-04)Аудио
Идентификатор : 1
Формат : AC-3
Формат/Информация : Audio Coding 3
Расширение режима : CM (complete main)
Параметр Endianness формата : Big
Идентификатор кодека : 2000
Продолжительность : 2 ч. 24 м.
Вид битрейта : Постоянный
Битрейт : 192 Кбит/сек
Каналы : 2 канала
Расположение каналов : Front: L R
Частота : 48,0 КГц
Частота кадров : 31,250 кадров/сек (1536 spf)
Метод сжатия : С потерями
Размер потока : 199 Мбайт (9%)
Выравнивание : Разделение по промежуткам
Продолжительность промежутка : 42 мс. (1,00 видеокадр)
Время предзагрузки промежутка : 500 мс.

Скриншоты

ТрейлерПРИСУТСТВУЕТ РЕКЛАМА!
Яндекс.Метрика
Рейтинг@Mail.ru