[ Сегодня на трекере фрилич! Идет свободное скачивание без начисления Download ]

Джоши / Joshy (Джефф Бэйна / Jeff Baena) [2016 г., комедия, HDRip] DVO [RecentFilms] + Original (Eng)

 

Создавать темы 29-Сен-2016 05:58

--Джоши / Joshy--«Wedding's off. Party's on»-- Производство: США / American Zoetrope, Bow and Arrow Entertainment, Destro Films, StarStream Media
Год выпуска: 2016 г.
Жанр: комедия
Продолжительность: 01:33:14--Мировая премьера: 24 января 2016--Перевод: Любительский (двухголосый, закадровый) [RecentFilms]
Оригинальный аудиопоток: английский--Режиссер: Джефф Бэйна / Jeff Baena--В ролях: Томас Миддлдитч, Адам Палли, Алекс Росс Перри, Ник Кролл, Бретт Гельман, Дженни Слейт, Лорен Грэм, Обри Плаза, Джо Сванберг, Крис Сванберг, Элисон Бри--Описание: Джош не хочет упустить отличную возможность воссоединиться со старыми друзьями на своем мальчишнике, который он решает устроить даже несмотря на отменившуюся свадьбу.-- --Качество видео: HDRip
Контейнер: AVI
Видео кодек: XviD
Аудио кодек: AC3
Видео: 720x304 (2.37:1), 23.976 fps, XviD build 64 ~1512 kbps avg, 0.29 bit/pixel
Аудио 1: 48 kHz, AC3 Dolby Digital, 2/0 (L,R) ch, ~256 kbps RUS
Аудио 2: 48 kHz, AC3 Dolby Digital, 3/2 (L,C,R,l,r) + LFE ch, ~448 kbps ENG
Cубтитры: отсутствуют.

Media Info

Общее
Полное имя : H:\Torrent2\Joshy (2016) HDRip\Joshy.2016.HDRip.avi
Формат : AVI
Формат/Информация : Audio Video Interleave
Профиль формата : OpenDML
Размер файла : 1,45 Гбайт
Продолжительность : 1 ч. 33 м.
Общий поток : 2234 Кбит/сек
Программа кодирования : XviD4PSP 6.0 / 54.29.105Видео
Идентификатор : 0
Формат : xvid
Идентификатор кодека : xvid
Продолжительность : 1 ч. 33 м.
Битрейт : 1512 Кбит/сек
Ширина : 720 пикселей
Высота : 304 пикселя
Соотношение сторон : 2,40:1
Частота кадров : 23,976 кадра/сек
Тип развёртки : Прогрессивная
Бит/(Пиксели*Кадры) : 0.288
Размер потока : 1008 Мбайт (68%)Аудио #1
Идентификатор : 1
Формат : AC-3
Формат/Информация : Audio Coding 3
Расширение режима : CM (complete main)
Параметр Endianness формата : Big
Идентификатор кодека : 2000
Продолжительность : 1 ч. 33 м.
Вид битрейта : Постоянный
Битрейт : 256 Кбит/сек
Каналы : 2 канала
Расположение каналов : Front: L R
Частота : 48,0 КГц
Частота кадров : 31,250 кадров/сек (1536 spf)
Битовая глубина : 16 бит
Метод сжатия : С потерями
Размер потока : 171 Мбайт (11%)
Выравнивание : Соединение по промежуткам
Продолжительность промежутка : 32 мс. (0,77 видеокадр)
Заголовок : Любительский двухголосый (RecentFilms)Аудио #2
Идентификатор : 2
Формат : AC-3
Формат/Информация : Audio Coding 3
Расширение режима : CM (complete main)
Параметр Endianness формата : Big
Идентификатор кодека : 2000
Продолжительность : 1 ч. 33 м.
Вид битрейта : Постоянный
Битрейт : 448 Кбит/сек
Каналы : 6 каналов
Расположение каналов : Front: L C R, Side: L R, LFE
Частота : 48,0 КГц
Частота кадров : 31,250 кадров/сек (1536 spf)
Битовая глубина : 16 бит
Метод сжатия : С потерями
Размер потока : 299 Мбайт (20%)
Выравнивание : Соединение по промежуткам
Продолжительность промежутка : 32 мс. (0,77 видеокадр)
Заголовок : Original

Скриншоты

Трейлер
Яндекс.Метрика
Рейтинг@Mail.ru