Первое свидание Райли / Riley's First Date? [2015 г., мультфильм, короткометражка, мелодрама, комедия, семейный, 0+, BDRip, 720p] Dub + Original (Eng)

 

Создавать темы 29-Сен-2016 05:55

-Первое свидание Райли / Riley's First Date?-- Производство: США, Pixar Animation Studios
Режиссер: Джош Кули / Джош Кули
Жанр: мультфильм, короткометражка, мелодрама, комедия, семейный, 0+
Год выпуска: 2015 г.
Продолжительность: 00:04:40Мировая премьера: 13 октября 2015
Перевод: Профессиональный (полное дублирование) [BD CEE]
Оригинальный аудиопоток: английскийРоли озвучивали: Денис Некрасов, Татьяна Шитова-Описание: В жизни каждого ребенка наступает момент, когда он вырастает, и его отношения со сверстниками переходят на новый уровень. Вот только для родителей это всегда становится неожиданностью, сколько бы лет ни исполнилось их чаду. Мистер и миссис Андерсон так же оказались не готовы к тому, что у их дочери появится молодой человек.-КиноПоиск
Качество видео: BDRip
Контейнер: MKV
Стандарт разрешения: 720p
Видео кодек: MPEG4 AVC
Аудио кодек: AC3
Видео: 1280x720 (16:9), 23.976 fps, MPEG-4 AVC ~4 162 kbps avg
Аудио: 48.0 kHz, AC3 Dolby Digital, 3/2 (L,C,R,l,r) + LFE ch, ~640 kbps
Аудио #2: 48.0 kHz, AC3 Dolby Digital, 3/2 (L,C,R,l,r) + LFE ch, ~640 kbps
Cубтитры: русские, английские
Формат субтитров: softsub (SRT)
Доп. информация о субтитрах: включаемые, Full

Media Info

Общее
Уникальный идентификатор : 251273707991861866177367424658326916860 (0xBD098E4BEA4AE76AA6A1439EDBAF8EFC)
Полное имя : J:\Первое свидание Райли (Головоломка)\Pervoe Svidanie Rajli.720p.BDRip.[pirat.ca].mkv
Формат : Matroska
Версия формата : Version 2
Размер файла : 186 Мбайт
Продолжительность : 4 м. 40 с.
Общий поток : 5552 Кбит/сек
Дата кодирования : UTC 2016-09-28 11:36:50
Программа кодирования : mkvmerge v5.3.0 ('I could have danced') built on Feb 9 2012 10:38:07
Библиотека кодирования : libebml v1.2.3 + libmatroska v1.3.0Видео
Идентификатор : 1
Формат : AVC
Формат/Информация : Advanced Video Codec
Профиль формата : [email protected]/* */
Параметр CABAC формата : Да
Параметр ReFrames формата : 9 кадров
Идентификатор кодека : V_MPEG4/ISO/AVC
Продолжительность : 4 м. 40 с.
Битрейт : 4162 Кбит/сек
Ширина : 1280 пикселей
Высота : 720 пикселей
Соотношение сторон : 16:9
Режим частоты кадров : Постоянный
Частота кадров : 23,976 (24000/1001) кадра/сек
Цветовое пространство : YUV
Субдискретизация насыщенности : 4:2:0
Битовая глубина : 8 бит
Тип развёртки : Прогрессивная
Бит/(Пиксели*Кадры) : 0.188
Размер потока : 139 Мбайт (75%)
Заголовок : Riley's First Date (2015)
Библиотека кодирования : x264 core 148 r2638kMod 7599210
Настройки программы : cabac=1 / ref=9 / deblock=1:-3:-2 / analyse=0x3:0x133 / me=tesa / subme=11 / psy=1 / fade_compensate=0.00 / psy_rd=1.00:0.05 / mixed_ref=1 / me_range=48 / chroma_me=1 / trellis=2 / 8x8dct=1 / cqm=0 / deadzone=21,11 / fast_pskip=0 / chroma_qp_offset=-3 / threads=12 / lookahead_threads=3 / sliced_threads=0 / nr=0 / decimate=1 / interlaced=0 / bluray_compat=0 / constrained_intra=0 / fgo=0 / bframes=10 / b_pyramid=2 / b_adapt=2 / b_bias=0 / direct=3 / weightb=1 / open_gop=0 / weightp=2 / keyint=250 / keyint_min=23 / scenecut=40 / intra_refresh=0 / rc_lookahead=60 / rc=crf / mbtree=0 / crf=16.9000 / qcomp=0.60 / qpmin=0 / qpmax=69 / qpstep=4 / vbv_maxrate=50000 / vbv_bufsize=62500 / crf_max=0.0 / nal_hrd=none / filler=0 / ip_ratio=1.40 / pb_ratio=1.30 / aq=3:0.90
Язык : English
Default : Да
Forced : НетАудио #1
Идентификатор : 2
Формат : AC-3
Формат/Информация : Audio Coding 3
Расширение режима : CM (complete main)
Параметр Endianness формата : Big
Идентификатор кодека : A_AC3
Продолжительность : 4 м. 40 с.
Вид битрейта : Постоянный
Битрейт : 640 Кбит/сек
Каналы : 6 каналов
Расположение каналов : Front: L C R, Side: L R, LFE
Частота : 48,0 КГц
Частота кадров : 31,250 кадров/сек (1536 spf)
Метод сжатия : С потерями
Размер потока : 21,4 Мбайт (12%)
Заголовок : DUB
Язык : Russian
Default : Да
Forced : НетАудио #2
Идентификатор : 3
Формат : AC-3
Формат/Информация : Audio Coding 3
Расширение режима : CM (complete main)
Параметр Endianness формата : Big
Идентификатор кодека : A_AC3
Продолжительность : 4 м. 40 с.
Вид битрейта : Постоянный
Битрейт : 640 Кбит/сек
Каналы : 6 каналов
Расположение каналов : Front: L C R, Side: L R, LFE
Частота : 48,0 КГц
Частота кадров : 31,250 кадров/сек (1536 spf)
Метод сжатия : С потерями
Размер потока : 21,4 Мбайт (12%)
Заголовок : Original
Язык : English
Default : Нет
Forced : НетТекст #1
Идентификатор : 4
Формат : UTF-8
Идентификатор кодека : S_TEXT/UTF8
Идентификатор кодека/Информация : UTF-8 Plain Text
Заголовок : Full
Язык : Russian
Default : Нет
Forced : НетТекст #2
Идентификатор : 5
Формат : UTF-8
Идентификатор кодека : S_TEXT/UTF8
Идентификатор кодека/Информация : UTF-8 Plain Text
Заголовок : Full
Язык : English
Default : Нет
Forced : НетМеню
00:00:00.000 : en:00:00:00.000
00:00:58.350 : en:00:00:58.350
00:02:45.874 : en:00:02:45.874
00:03:10.107 : en:00:03:10.107

Скриншот c названием мультфильма

Скриншоты

Яндекс.Метрика
Рейтинг@Mail.ru