[ Сегодня на трекере фрилич! Идет свободное скачивание без начисления Download ]

Алиса в Зазеркалье / Alice Through the Looking Glass (2016) BDRip [H.264/720p-LQ]

 

Создавать темы 28-Сен-2016 10:42

-Алиса в Зазеркалье / Alice Through the Looking Glass (2016) BDRip [H.264/720p-LQ]- Производство: США, Великобритания
Жанр: Фэнтези, приключения, семейный
Режиссер: Джеймс Бобин
Актеры: Миа Васиковска, Джонни Депп, Хелена Бонем Картер, Энн Хэтэуэй, Саша Барон Коэн, Рис Иванс, Мэтт Лукас, Линдси Дункан, Лео Билл, Джеральдин Джеймс
Описание: Победив огнедышащего дракона Бармаглота и свергнув с трона Красную Королеву, Алиса возвращается в свой родной мир. Три года она плавает по китайским морям в звании капитана корабля "Чудо", перевозя торговые грузы и занимаясь делами компании своего покойного отца, Чарльза Кингсли. Но вскоре ей предстоит вновь с головой окунуться в водоворот захватывающих приключений и ярких красок дневного свечения, опередив само время, чтобы спасти своего лучшего друга, Сумасшедшего Шляпника.

Возраст: 12+ (зрителям, достигшим 12 лет)
Рейтинг MPAA: PG (рекомендуется присутствие родителей)
Дата мировой премьеры: 10 мая 2016
Дата российской премьеры: 26 мая 2016
Дата выхода DVD/Blu-ray релиза: 20 октября 2016
Продолжительность: 01:52:57
Качество видео: BDRip (RARBG)
Перевод: Дублированный (iTunes)
Субтитры: Русский, Английский
Видео: AVC/H.264, 1280x688, ~1500 Kbps
Аудио 1: AC3, 6 ch, 384 Kbps | Русский
Аудио 2: AC3, 6 ch, 384 Kbps | Английский

MediaInfo:

Общее
Полное имя : \Алиса в Зазеркалье_Alice Through the Looking Glass.2016.BDRip.720p.LQ.NNMClub.mkv
Формат : Matroska
Версия формата : Version 2
Размер файла : 1,79 Гбайт
Продолжительность : 1 ч. 52 м.
Общий поток : 2270 Кбит/сек
Название фильма : Алиса в Зазеркалье_Alice Through the Looking Glass.2016.BDRip.720p.LQ.NNMClub
Дата кодирования : UTC 2016-09-28 08:06:24
Программа кодирования : mkvmerge v7.7.0 ('Six Voices') 64bit built on Feb 28 2015 23:39:33
Библиотека кодирования : libebml v1.3.1 + libmatroska v1.4.2
Видео
Идентификатор : 1
Формат : AVC
Формат/Информация : Advanced Video Codec
Профиль формата : [url=mailto:[email protected]][email protected][/url]
Параметр CABAC формата : Да
Параметр ReFrames формата : 4 кадра
Идентификатор кодека : V_MPEG4/ISO/AVC
Продолжительность : 1 ч. 52 м.
Битрейт : 1500 Кбит/сек
Ширина : 1280 пикселей
Высота : 688 пикселей
Соотношение сторон : 1,85:1
Режим частоты кадров : Постоянный
Частота кадров : 23,976 (23976/1000) кадра/сек
Цветовое пространство : YUV
Субдискретизация насыщенности : 4:2:0
Битовая глубина : 8 бит
Тип развёртки : Прогрессивная
Бит/(Пиксели*Кадры) : 0.071
Размер потока : 1,15 Гбайт (64%)
Заголовок : Алиса в Зазеркалье_Alice Through the Looking Glass.2016.BDRip.720p.LQ.NNMClub
Библиотека кодирования : x264 core 148 r2597M e86f3a1
Настройки программы : cabac=1 / ref=4 / deblock=1:-1:-1 / analyse=0x3:0x113 / me=umh / subme=9 / psy=1 / psy_rd=1.00:0.15 / mixed_ref=1 / me_range=24 / chroma_me=1 / trellis=2 / 8x8dct=1 / cqm=0 / deadzone=21,11 / fast_pskip=1 / chroma_qp_offset=-3 / threads=32 / lookahead_threads=4 / sliced_threads=0 / nr=0 / decimate=1 / interlaced=0 / bluray_compat=0 / constrained_intra=0 / bframes=3 / b_pyramid=2 / b_adapt=2 / b_bias=0 / direct=3 / weightb=1 / open_gop=0 / weightp=2 / keyint=250 / keyint_min=25 / scenecut=40 / intra_refresh=0 / rc_lookahead=50 / rc=2pass / mbtree=1 / bitrate=1500 / ratetol=1.0 / qcomp=0.60 / qpmin=0 / qpmax=69 / qpstep=4 / cplxblur=20.0 / qblur=0.5 / vbv_maxrate=31250 / vbv_bufsize=31250 / nal_hrd=none / filler=0 / ip_ratio=1.40 / aq=3:1.00
Язык : English
Default : Да
Forced : Нет
Аудио #1
Идентификатор : 2
Формат : AC-3
Формат/Информация : Audio Coding 3
Расширение режима : CM (complete main)
Параметр Endianness формата : Big
Идентификатор кодека : A_AC3
Продолжительность : 1 ч. 52 м.
Вид битрейта : Постоянный
Битрейт : 384 Кбит/сек
Каналы : 6 каналов
Расположение каналов : Front: L C R, Side: L R, LFE
Частота : 48,0 КГц
Частота кадров : 31,250 кадров/сек (1536 spf)
Метод сжатия : С потерями
Размер потока : 310 Мбайт (17%)
Заголовок : Дублированный (iTunes)
Язык : Russian
Default : Да
Forced : Нет
Аудио #2
Идентификатор : 3
Формат : AC-3
Формат/Информация : Audio Coding 3
Расширение режима : CM (complete main)
Параметр Endianness формата : Big
Идентификатор кодека : A_AC3
Продолжительность : 1 ч. 52 м.
Вид битрейта : Постоянный
Битрейт : 384 Кбит/сек
Каналы : 6 каналов
Расположение каналов : Front: L C R, Side: L R, LFE
Частота : 48,0 КГц
Частота кадров : 31,250 кадров/сек (1536 spf)
Метод сжатия : С потерями
Размер потока : 310 Мбайт (17%)
Заголовок : Оригинал
Язык : English
Default : Нет
Forced : Нет
Текст #1
Идентификатор : 4
Формат : UTF-8
Идентификатор кодека : S_TEXT/UTF8
Идентификатор кодека/Информация : UTF-8 Plain Text
Язык : Russian
Default : Нет
Forced : Нет
Текст #2
Идентификатор : 5
Формат : UTF-8
Идентификатор кодека : S_TEXT/UTF8
Идентификатор кодека/Информация : UTF-8 Plain Text
Язык : English
Default : Нет
Forced : Нет
Меню
00:00:00.000 : en:00:00:00.000
00:04:33.190 : en:00:04:33.190
00:07:24.235 : en:00:07:24.235
00:12:07.435 : en:00:12:07.435
00:16:39.790 : en:00:16:39.790
00:22:47.616 : en:00:22:47.616
00:24:59.623 : en:00:24:59.623
00:30:18.233 : en:00:30:18.233
00:35:29.794 : en:00:35:29.794
00:41:32.990 : en:00:41:32.990
00:45:20.051 : en:00:45:20.051
00:51:35.676 : en:00:51:35.676
00:54:11.039 : en:00:54:11.039
00:57:40.123 : en:00:57:40.123
01:04:18.521 : en:01:04:18.521
01:09:18.988 : en:01:09:18.988
01:12:46.279 : en:01:12:46.279
01:18:07.391 : en:01:18:07.391
01:23:20.245 : en:01:23:20.245
01:27:34.749 : en:01:27:34.749
01:32:15.947 : en:01:32:15.947
01:36:40.461 : en:01:36:40.461
01:40:12.590 : en:01:40:12.590
01:43:14.814 : en:01:43:14.814
Скриншоты:
Время раздачи: 24/7 (до 5 скачавших)
Яндекс.Метрика
Рейтинг@Mail.ru