[ Сегодня на трекере фрилич! Идет свободное скачивание без начисления Download ]

Роузвуд / Rosewood / Сезон: 1 / Серии: 22 из 22 (Милан Чейлов / Milan Cheylov, ...) [2015 г., Драма, детектив, WEB-DLRip] MVO (NewStudio) + Original (Eng)

 

Создавать темы 28-Сен-2016 03:53

-Роузвуд / Rosewood-- Производство: США, 20th Century Fox Television, ...
Жанр: Драма, детектив
Год выпуска: 2015 г.
Продолжительность: 00:44:00Мировая премьера: 23 сентября 2015
Перевод: Профессиональный (многоголосый, закадровый) [NewStudio]
Оригинальный аудиопоток: английскийРежиссер: Милан Чейлов / Milan Cheylov, ...-В ролях: Моррис Честнат, Габриэль Деннис, Джессика Ортиз, Лоррейн Туссен, Анна Конкл, Майкл Эндрю Бэйкер, Кристиан Диас, Стэйси Холл, Лукас С. Локвуд-Описание: История о патологоанатоме из Майами, докторе Роузвуде. Он проводит вскрытия в своей передовой лаборатории, чтобы обнаружить улики, невидимые для департамента полиции.-
Качество видео: WEB-DLRip
Контейнер: AVI
Видео кодек: XviD
Аудио кодек: MP3
Видео: 720x400 (1.80:1), 23.976 fps, XviD MPEG-4 ~1355 kbps avg, 0.20 bit/pixel
Аудио: 48 kHz, MPEG Layer 3, 2 ch, ~128.00 kbps avg
Аудио #2: 48 kHz, MPEG Layer 3, 2 ch, ~128.00 kbps avgCубтитры: отсутствуют

Рецензия

Про ЧЕЛОВЕКАСериал с первых серий захватывает внимание зрителя в первую очередь конечно же обаятельным Моррисом Честнатом! В его потрясающего персонажа просто невозможно не влюбиться. Доктор Роузвуд имеет целый букет заболеваний, каждый его новый день это очередной раунд за свою жизнь. При всем при этом он остается очень добрым и отзывчивым человеком, не без философского взгляда на жизнь. Он понимает всю серьезность своего положения, но в первую очередь Роузвуд думает о том, что он может сделать, а не о том что нет. «Смотря на тело я вижу ни смерть, а жизнь, которую потерял этот человек». Этот медик настоящий герой своего времени. Галантность, с которой он обращается с лицами противоположного пола вселяет уважение. Доктор даже не поддерживает пошлые шутки из чужих уст — «эти разговоры не для меня».Помимо хорошо проработанной личности главного персонажа, заслуживают внимание отлично сыгранные женские роли. Напарница Раузвуда, Аннализа, предстает перед зрителем весьма состоявшейся личностью с горой скелетов в собственном шкафу. Разумеется она не спешит открывать душу первому встречному, но по мере того, как зритель знакомиться с ней, он узнает все больше и больше об этой девушке. Кэт, девушка Роузвуда из первых серий, играя полную противоположность Вилльи, в свою очередь подает пример настоящего профессионала своего дела. Она психолог, и держится своих твердых моральных убеждений, даже тогда, когда от этого разрушается ее собственная жизнь.Это лишь те добрые слова об этом сериале, которые первыми приходят на ум. Можно еще долго рассуждать о изумительной работе авторов и актеров этого фильма, и о том как жаль что в наших реалиях все обстоит совсем иначе, но лучше будет если вы сами посмотрите этот сериал. Уверяю вас, если в вас еще живет благородный романтик, то этот фильм вам точно понравиться.

Media Info

oбщее
Полное имя : F:\Роузвуд\Rosewood.S01.2015.WEBDLRip.NewStudio.[pirat.ca]\Rosewood.s01e01.WEBDLRip.NewStudio.avi
Формат : AVI
Формат/Информация : Audio Video Interleave
Размер файла : 545 Мбайт
Продолжительность : 46 м.
Общий поток : 1626 Кбит/сек
Программа кодирования : VirtualDubMod 1.5.10.3 | www.virtualdub-fr.org || (build 2550/release)
Библиотека кодирования : VirtualDubMod build 2550/releaseВидео
Идентификатор : 0
Формат : MPEG-4 Visual
Профиль формата : Advanced [email protected]/* */
Параметр BVOP формата : 2
Параметр QPel формата : Нет
Параметр GMC формата : Без точки перехода
Параметр матрицы формата : Default (MPEG)
Идентификатор кодека : XVID
Идентификатор кодека/Подсказка : XviD
Продолжительность : 46 м.
Битрейт : 1356 Кбит/сек
Ширина : 720 пикселей
Высота : 400 пикселей
Соотношение сторон : 16:9
Частота кадров : 23,976 (23976/1000) кадра/сек
Цветовое пространство : YUV
Субдискретизация насыщенности : 4:2:0
Битовая глубина : 8 бит
Тип развёртки : Прогрессивная
Метод сжатия : С потерями
Бит/(Пиксели*Кадры) : 0.196
Размер потока : 454 Мбайт (83%)
Библиотека кодирования : XviD 73Аудио #1
Идентификатор : 1
Формат : MPEG Audio
Версия формата : Version 1
Профиль формата : Layer 3
Режим : Joint stereo
Расширение режима : MS Stereo
Идентификатор кодека : 55
Идентификатор кодека/Подсказка : MP3
Продолжительность : 46 м.
Вид битрейта : Постоянный
Битрейт : 128 Кбит/сек
Каналы : 2 канала
Частота : 48,0 КГц
Метод сжатия : С потерями
Размер потока : 42,9 Мбайт (8%)
Выравнивание : Соединение по промежуткам
Продолжительность промежутка : 42 мс. (1,00 видеокадр)
Время предзагрузки промежутка : 504 мс.Аудио #2
Идентификатор : 2
Формат : MPEG Audio
Версия формата : Version 1
Профиль формата : Layer 3
Режим : Joint stereo
Расширение режима : MS Stereo
Идентификатор кодека : 55
Идентификатор кодека/Подсказка : MP3
Продолжительность : 46 м.
Вид битрейта : Постоянный
Битрейт : 128 Кбит/сек
Каналы : 2 канала
Частота : 48,0 КГц
Метод сжатия : С потерями
Размер потока : 42,9 Мбайт (8%)
Выравнивание : Соединение по промежуткам
Продолжительность промежутка : 42 мс. (1,00 видеокадр)
Время предзагрузки промежутка : 504 мс.
Библиотека кодирования : LAME3.99.5ЄЄЄЄЄЄЄЄЄЄ

Скриншот c названием фильма

Скриншоты

Трейлер

Яндекс.Метрика
Рейтинг@Mail.ru