Абатуар / Скотобойня / Abattoir (Даррен Линн Боусман / Darren Lynn Bousman) [2016 г., ужасы, триллер, HDRip] DVO

 

Создавать темы 28-Сен-2016 03:48

-Абатуар / Скотобойня / Abattoir-- Производство: США, Dark Web Productions, ...
Год выпуска: 2016 г.
Жанр: ужасы, триллер
Продолжительность: 01:39:03Мировая премьера: 7 июня 2016
Российская премьера: 24 ноября 2016, «Экспонента»
Дата выхода DVD: 15 августа 2016, «НД Плэй»
Перевод: Любительский (двухголосый, закадровый) [Levelin]
Режиссер: Даррен Линн Боусман / Darren Lynn Bousman-В ролях: Джессика Лаундес, Джо Андерсон, Лин Шэй, Майкл Паре, Дэйтон Калли, Брайан Бэтт, Джон МакКоннелл, Эйден Флауэрс, Томас Мерфи, Джэй Хьюджули-Описание: Журналистка Джулия ведет расследование странных обстоятельств смерти своей сестры. Муж, одержимый жуткими видениями, убил жену и сына, а комната, где произошло преступление, исчезла. Джулия выясняет, что такое уже случалось раньше, а покупателем домов, где произошли убийства, всегда выступал человек по имени Джеремайя Крон. Следы таинственного покупателя приводят Джулию в затерявшееся на карте место, где из материалов пропавших комнат строится дом с призраками. Но самое страшное — не сам дом, а кому и для чего он нужен.-
Качество видео: HDRip
Контейнер: AVI
Видео кодек: XviD
Аудио кодек: AC3
Видео: 720x304 (2.37:1), 23.976 fps, XviD build 73 ~1905 kbps avg, 0.36 bit/pixel
Аудио: 48 kHz, AC3 Dolby Digital, 2/0 (L,R) ch, ~192 kbps
Cубтитры: отсутствуют

Доп. информация

На английском слово «abattoir» означает «скотобойня».

Media Info

Общее
Полное имя : F:\Абатуар\Abattoir.2016.HDRip.[pirat.ca].avi
Формат : AVI
Формат/Информация : Audio Video Interleave
Размер файла : 1,46 Гбайт
Продолжительность : 1 ч. 39 м.
Общий поток : 2105 Кбит/секВидео
Идентификатор : 0
Формат : MPEG-4 Visual
Профиль формата : Advanced [email protected]/* */
Параметр BVOP формата : 1
Параметр QPel формата : Нет
Параметр GMC формата : Без точки перехода
Параметр матрицы формата : Выборочная
Идентификатор кодека : XVID
Идентификатор кодека/Подсказка : XviD
Продолжительность : 1 ч. 39 м.
Битрейт : 1905 Кбит/сек
Ширина : 720 пикселей
Высота : 304 пикселя
Соотношение сторон : 2,35:1
Частота кадров : 23,976 (24000/1001) кадра/сек
Цветовое пространство : YUV
Субдискретизация насыщенности : 4:2:0
Битовая глубина : 8 бит
Тип развёртки : Прогрессивная
Метод сжатия : С потерями
Бит/(Пиксели*Кадры) : 0.363
Размер потока : 1,32 Гбайт (91%)
Библиотека кодирования : XviD 73Аудио
Идентификатор : 1
Формат : AC-3
Формат/Информация : Audio Coding 3
Расширение режима : CM (complete main)
Параметр Endianness формата : Big
Идентификатор кодека : 2000
Продолжительность : 1 ч. 39 м.
Вид битрейта : Постоянный
Битрейт : 192 Кбит/сек
Каналы : 2 канала
Расположение каналов : Front: L R
Частота : 48,0 КГц
Частота кадров : 31,250 кадров/сек (1536 spf)
Метод сжатия : С потерями
Размер потока : 136 Мбайт (9%)
Выравнивание : Соединение по промежуткам
Продолжительность промежутка : 64 мс. (1,53 видеокадра)
Время предзагрузки промежутка : 192 мс.
Заголовок : Levelin

Скриншот c названием фильма

Скриншоты

Трейлер

Яндекс.Метрика
Рейтинг@Mail.ru