[ Сегодня на трекере фрилич! Идет свободное скачивание без начисления Download ]

Летний дождь / El camino de los ingleses (Антонио Бандерас / Antonio Banderas) [2006 г., драма, мелодрама, 18+, DVDRip] MVO

 

Создавать темы 28-Сен-2016 03:37

-Летний дождь / El camino de los ingleses-- Производство: Испания, Великобритания
Год выпуска: 2006 г.
Жанр: драма, мелодрама, 18+
Продолжительность: 01:52:13Мировая премьера: 24 ноября 2006
Российская премьера: 10 апреля 2008, «Plan2Real»
Перевод: Профессиональный (многоголосый, закадровый) [Plan2Real]
Режиссер: Антонио Бандерас / Antonio Banderas-В ролях: Альберто Амарилла, Мария Руис, Феликс Гомез, Рауль Аревало, Марта Ниэто, Марио Касас, Фран Переа, Антонио Гарридо, Антонио Зафра, Виктор Перез, Кука Эскрибано, Лучио Ромеро, Пепа Аниорте, Виктория Абриль-Описание: 1970-е годы. В испанском городе Малага трое подростков — Мигелито, Пако и Баби — наслаждаются летом и весело проводят время: купаются в бассейне, загорают на солнце, выпивают в баре и ухаживают за девушками. Они хотят познать все прелести жизни и ни в чем себе не отказывать.
Но наряду с радостными событиями, на жизненном пути их подстерегают серьезные трудности и первые разочарования, которые помогут парням расстаться с детством и вступить во взрослый мир…-
Качество видео: DVDRip
Контейнер: AVI
Видео кодек: XviD
Аудио кодек: AC3
Видео: 720x320 (2.25:1), 25 fps, XviD MPEG-4 ~1646 kbps avg, 0.29 bit/pixel
Аудио: 48 kHz, AC3 Dolby Digital, 2/0 (L,R) ch, ~192 kbps
Cубтитры: отсутствуют

Награды

Берлинский кинофестиваль, 2007 год
Победитель (1):
Приз ассоциации европейских кинотеатров
Гойя, 2007 год
Номинации (2):
Лучший актер-дебютант (Альберто Амарилья)
Лучший адаптированный сценарий

Рецензия

UlianaDo рецензии (22) оценки друзья фильмыНо пройдет время, и мы снова увидим солнцеДевушка в красной пачке. Ее плавные движения. Медленная красивая мелодия, легким шелестом уносящая нас за собой. Страницы «Божественной комедии» Данте. И парящий в небесах главный герой. Так начинается фильм, рассказывающий нам о шестерых подростках, чья жизнь поначалу похожая на летний дождь, вынуждена повинуясь ежегодной смене времен года, отцвести, и опасть на землю, забыв все свои детские мечты, в виде потухших листьев, брошенных в огонь.Английская дорога — последнее пристанище главного героя. Здесь его друг рассказывал ему о Лондоне. И здесь они были счастливы, пусть недолго, пусть всего лишь ровно столько, сколько идет летний дождь, но они были рядом, они были молоды, они ничего не знали.Они не знали, что когда-то наступит завтра, что сказка закончиться и никогда не повторится вновь, что они станут взрослее. Летний дождь оказался обманчивым. Он уже не тот, что был в начале, под которым хотелось танцевать, обнявшись, кричать, радоваться, закидывать голову вверх и благодарить небеса за такое неожиданное дарованное свыше, но такое мимолетное счастье. Этот дождь горчит, от него веет прохладой и неизбежной разлукой, дождь, после которого на лице все равно будут капли, только уже не дождя, а проступающего едкого аромата меланхолии.Отречься от мечты, сжечь все то, что занимало все твои мысли много лет, признать незначительность собственной цели — это значит быть не как все, быть здесь, но быть другими, не увидев рассвета, дожить до любви.Да, дождь бы сильный. Ночь была игрой в рулетку. Монета, подброшенная в воздух, упала решкой. Скверное время, чтобы прощаться с временем мечты. Английская дорога. А потом набежали все эти тучи, подули ветра. И появилось солнце, которое я предсказывал, когда мир был еще возможен. Бедные бабирусса, бедные мечтатели, поэты, не написавшие ни одного стиха, мы никогда не видели берегов Африки, берегов Африки. Нет никогда, ни с балкона, ни с набережной, ни с маяка, ни с крыши, мы не видели берегов Африки. Но там за горизонтом, мы всегда чувствовали сеяние неизвестного, отражение жизни, которая, как знать, сыграй мы в другую рулетку, могла бы быть нашей.10 из 10

Media Info

Общее
Полное имя : E:\Летний дождь (2006)\Letnij Dozhd.2006.DVDRip.[pirat.ca].avi
Формат : AVI
Формат/Информация : Audio Video Interleave
Размер файла : 1,45 Гбайт
Продолжительность : 1 ч. 52 м.
Общий поток : 1845 Кбит/сек
Программа кодирования : VirtualDubMod 1.5.4.1 (build 2178/release)
Библиотека кодирования : VirtualDubMod build 2178/releaseВидео
Идентификатор : 0
Формат : MPEG-4 Visual
Профиль формата : Advanced [email protected]/* */
Параметр BVOP формата : 1
Параметр QPel формата : Нет
Параметр GMC формата : Без точки перехода
Параметр матрицы формата : Выборочная
Идентификатор кодека : XVID
Идентификатор кодека/Подсказка : XviD
Продолжительность : 1 ч. 52 м.
Битрейт : 1647 Кбит/сек
Ширина : 720 пикселей
Высота : 320 пикселей
Соотношение сторон : 2,25:1
Частота кадров : 25,000 кадров/сек
Цветовое пространство : YUV
Субдискретизация насыщенности : 4:2:0
Битовая глубина : 8 бит
Тип развёртки : Прогрессивная
Метод сжатия : С потерями
Бит/(Пиксели*Кадры) : 0.286
Размер потока : 1,29 Гбайт (89%)
Библиотека кодирования : XviD 64Аудио
Идентификатор : 1
Формат : AC-3
Формат/Информация : Audio Coding 3
Расширение режима : CM (complete main)
Параметр Endianness формата : Big
Идентификатор кодека : 2000
Продолжительность : 1 ч. 52 м.
Вид битрейта : Постоянный
Битрейт : 192 Кбит/сек
Каналы : 2 канала
Расположение каналов : Front: L R
Частота : 48,0 КГц
Частота кадров : 31,250 кадров/сек (1536 spf)
Метод сжатия : С потерями
Размер потока : 154 Мбайт (10%)
Выравнивание : Разделение по промежуткам
Продолжительность промежутка : 96 мс. (2,40 видеокадра)
Время предзагрузки промежутка : 96 мс.
Язык : Russian

Скриншот c названием фильма

Скриншоты

Трейлер

Яндекс.Метрика
Рейтинг@Mail.ru