Глаз ребенка 3D / The Child's Eye 3D (Tung ngaan) (Оксид Пан, Дэнни Пан / Oxide Pang Chun, Danny Pang) [2010 г., Ужасы, Триллер, BDRip 1080p] [Вертикальная анаморфная стереопара / Half OverUnder] Dub + Original (Chinese) + Subs (Rus, Eng)

 

Создавать темы 06-Янв-2014 06:53

-Глаз ребенка 3D
The Child's Eye 3D (Tung ngaan)

«Посмотри в глаза зла в 3D»
-- Производство: Гонконг
Год выпуска: 2010 г.
Жанр: Ужасы, Триллер
Продолжительность: 01:37:01
Мировая премьера: 4 сентября 2010
Российская премьера: 4 августа 2011, «Кино без границ»
Дата выхода DVD: 20 октября 2011, «Новый Диск»
Перевод: Профессиональный (полное дублирование)
Оригинальный аудиопоток: Китайский
Режиссер: Оксид Пан, Дэнни Пан / Oxide Pang Chun, Danny Pang-В ролях: Рэйни Ян, Elanne Kwong, Лам Ка Танг, Джо Ку, Ciwi Lam, Шон Юе, Лоуренс Чоу
Роли дублировали: Вероника Саркисова, Дмитрий Курта, Александра Остроухова-Описание: Группа туристов из Гонконга в составе 6 человек оказывается запертой в аэропорту Бангкока во время антиправительственных выступлений в ноябре 2008-го года. Трое из группы исчезают таинственным и необъяснимым образом, а остальным предстоит столкнуться со сверхъестественными силами.- -Качество видео: BDRip 1080p
Контейнер: MKV
Формат 3D: Вертикальная анаморфная стереопара / Half OverUnder
Порядок ракурсов: левый ракурс первый
Видео кодек: H.264
Аудио кодек: AC3
Видео: AVC, 1920x1080 (16:9), 23.976 fps, 5 286 Kbps (0.106 bit/pixel)
Аудио: Russian: AC-3, 48.0 KHz, 6 ch, 448 Kbps, CBR (дубляж)
Аудио #2: Chinese: AC-3, 48.0 KHz, 6 ch, 640 Kbps, CBR (оригинал)
Cубтитры: русские, английские (полные)
Формат субтитров: softsub (SRT) (вшитые)

Media Info

Общее
Уникальный идентификатор : 190024188615162191570921888710274112442 (0x8EF553D71E15EDE6BD7BB711D25CDBBA)
Полное имя : G:\The.Child's.Eye_3D.2010.{Half OverUnder}[pirat.ca].mkv
Формат : Matroska
Версия формата : Version 2
Размер файла : 4,41 Гбайт
Продолжительность : 1 ч. 37 м.
Общий поток : 6504 Кбит/сек
Название фильма : The Child's Eye 3D 2010 {Oxide Pang Chun, Danny Pang} [R.G. All Films - pirat.ca]
Дата кодирования : UTC 2013-02-06 05:52:29
Программа кодирования : mkvmerge v5.8.0 ('No Sleep / Pillow') built on Sep 2 2012 15:37:04
Библиотека кодирования : libebml v1.2.3 + libmatroska v1.3.0
Видео
Идентификатор : 1
Формат : AVC
Формат/Информация : Advanced Video Codec
Профиль формата : [email protected]
Параметр CABAC формата : Да
Параметр ReFrames формата : 4 кадра
Идентификатор кодека : V_MPEG4/ISO/AVC
Продолжительность : 1 ч. 37 м.
Битрейт : 5286 Кбит/сек
Ширина : 1920 пикселей
Высота : 1080 пикселей
Соотношение сторон : 16:9
Режим частоты кадров : Постоянный
Частота кадров : 23,976 кадра/сек
Цветовое пространство : YUV
Субдискретизация насыщенности : 4:2:0
Битовая глубина : 8 бит
Тип развёртки : Прогрессивная
Бит/(Пиксели*Кадры) : 0.106
Размер потока : 3,58 Гбайт (81%)
Заголовок : The Child's Eye 3D [pirat.ca]
Библиотека кодирования : x264 core 119 r2106 07efeb4
Настройки программы : cabac=1 / ref=4 / deblock=1:-3:-3 / analyse=0x3:0x113 / me=umh / subme=9 / psy=1 / psy_rd=1.00:0.15 / mixed_ref=1 / me_range=16 / chroma_me=1 / trellis=2 / 8x8dct=1 / cqm=0 / deadzone=21,11 / fast_pskip=1 / chroma_qp_offset=-3 / threads=3 / sliced_threads=0 / nr=0 / decimate=1 / interlaced=0 / bluray_compat=0 / constrained_intra=0 / bframes=6 / b_pyramid=2 / b_adapt=2 / b_bias=0 / direct=3 / weightb=1 / open_gop=0 / weightp=2 / keyint=250 / keyint_min=23 / scenecut=40 / intra_refresh=0 / rc_lookahead=60 / rc=crf / mbtree=1 / crf=18.0 / qcomp=0.70 / qpmin=0 / qpmax=69 / qpstep=4 / vbv_maxrate=40000 / vbv_bufsize=40000 / crf_max=0.0 / nal_hrd=none / ip_ratio=1.40 / aq=1:0.70
Default : Да
Forced : Нет
Аудио #1
Идентификатор : 2
Формат : AC-3
Формат/Информация : Audio Coding 3
Расширение режима : CM (complete main)
Параметр Endianness формата : Big
Идентификатор кодека : A_AC3
Продолжительность : 1 ч. 37 м.
Вид битрейта : Постоянный
Битрейт : 448 Кбит/сек
Каналы : 6 каналов
Расположение каналов : Front: L C R, Side: L R, LFE
Частота : 48,0 КГц
Битовая глубина : 16 бит
Метод сжатия : С потерями
Размер потока : 311 Мбайт (7%)
Заголовок : Дубляж
Язык : Russian
Default : Да
Forced : Нет
Аудио #2
Идентификатор : 3
Формат : AC-3
Формат/Информация : Audio Coding 3
Расширение режима : CM (complete main)
Параметр Endianness формата : Big
Идентификатор кодека : A_AC3
Продолжительность : 1 ч. 37 м.
Вид битрейта : Постоянный
Битрейт : 640 Кбит/сек
Каналы : 6 каналов
Расположение каналов : Front: L C R, Side: L R, LFE
Частота : 48,0 КГц
Битовая глубина : 16 бит
Метод сжатия : С потерями
Размер потока : 444 Мбайт (10%)
Заголовок : Оригинал
Язык : Chinese
Default : Нет
Forced : Нет
Текст #1
Идентификатор : 4
Формат : UTF-8
Идентификатор кодека : S_TEXT/UTF8
Идентификатор кодека/Информация : UTF-8 Plain Text
Язык : Russian
Default : Нет
Forced : Нет
Текст #2
Идентификатор : 5
Формат : UTF-8
Идентификатор кодека : S_TEXT/UTF8
Идентификатор кодека/Информация : UTF-8 Plain Text
Язык : English
Default : Нет
Forced : Нет
Меню
00:00:00.000 : :1
00:07:32.118 : :2
00:14:02.425 : :3
00:22:47.866 : :4
00:27:54.673 : :5
00:35:17.282 : :6
00:47:05.072 : :7
00:53:11.814 : :8
00:57:42.584 : :9
01:07:29.504 : :10
01:14:04.357 : :11
01:23:09.860 : :12

Скриншоты

-Проверено на встроенном плейере ТВ: Samsung UE-C7000
-
Яндекс.Метрика
Рейтинг@Mail.ru