Жизнь Пи 3D / Lifе оf Рi 3D (Энг Ли / Ang Lee) [2012 г., Драма, Приключения, BDRip 1080p] [Вертикальная анаморфная стереопара / Half OverUnder] Dub [Лицензия] + Subs (Rus, Eng) + Original (Eng)

 

Создавать темы 06-Янв-2014 06:46

-Жизнь Пи 3D
Lifе оf Рi 3D
«Поверь в невозможное»
-- Производство: США, Тайвань (Fox 2000 Pictures, Dune Entertainment, Ingenious Media)
Год выпуска: 2012 г.
Жанр: Драма, Приключения
Продолжительность: 02:07:00
Мировая премьера: 28 сентября 2012
Дата выхода DVD: 4 апреля 2013, «Двадцатый Век Фокс СНГ»
Дата выхода Blu-Ray: 4 апреля 2013, «Двадцатый Век Фокс СНГ»
Перевод: Профессиональный (полное дублирование) [Лицензия]
Оригинальный аудиопоток: английский
Режиссер: Энг Ли / Ang Lee-В ролях: Сурадж Шарма (дубляж - Игорь Сергеев), Ирфан Кхан (дубляж - Валерий Соловьев), Рейф Сполл, Табу, Адиль Хуссэйн, Жерар Депардье, Аюш Тандон, Гаутам Белур, Аян Кхан, Мохд Аббас Халили, Вибиш Шивакумар (дубляж - Валерий Смекалов), Шраванти Сайнат (дубляж - Ирина Обрезкова)-Описание: Еще одна история "Маугли", которая происходит не в джунглях, а посреди Тихого океана, где по бескрайней водной глади дрейфует лодка со спасшимися после кораблекрушения. Семья решает перебраться жить в Канаду, но корабль терпит крушение. Индийский подросток Пи оказывается на шлюпке посреди океана в компании неожиданного попутчика — грозного бенгальского тигра. Фильм поставлен по одноименной книге Янна Мартелла, за которую автор получил Букеровскую премию.- -Качество видео: BDRip 1080p
Контейнер: MKV
Формат 3D: Вертикальная анаморфная стереопара / Half OverUnder
Видео кодек: H.264
Аудио кодек: AC3
Видео: AVC, 1920x1080 (16:9), 23.976 fps, 12.8 Mbps (0.257 bit/pixel)
Аудио: Rus: AC-3, 48.0 KHz, 6 ch, 640 Kbps, CBR (дубляж - лицензия)
Аудио #2: Eng: AC-3, 48.0 KHz, 6 ch, 640 Kbps, CBR (оригинал)
Cубтитры: Русские (Forced (включены по умолчанию)) + Full; Английские (Full + Forced)

Media Info

Общее
Уникальный идентификатор : 192439102421454924470142273369575361203 (0x90C66C4893E5EA6CA1FB9FF59FA18AB3)
Полное имя : G:\Life.of.Pi.3D.2012.BDRip1080p.Half OverUnder[pirat.ca].mkv
Формат : Matroska
Версия формата : Version 2
Размер файла : 12,5 Гбайт
Продолжительность : 2 ч. 6 м.
Общий поток : 14,1 Мбит/сек
Название фильма : Life of Pi 3D (2012) by Killbrain
Дата кодирования : UTC 2013-03-13 11:05:54
Программа кодирования : mkvmerge v5.8.0 ('No Sleep / Pillow') built on Sep 2 2012 15:37:04
Библиотека кодирования : libebml v1.2.3 + libmatroska v1.3.0
Видео
Идентификатор : 1
Формат : AVC
Формат/Информация : Advanced Video Codec
Профиль формата : [email protected]
Параметр CABAC формата : Да
Параметр ReFrames формата : 4 кадра
Идентификатор кодека : V_MPEG4/ISO/AVC
Продолжительность : 2 ч. 6 м.
Битрейт : 12,8 Мбит/сек
Ширина : 1920 пикселей
Высота : 1080 пикселей
Соотношение сторон : 16:9
Режим частоты кадров : Постоянный
Частота кадров : 23,976 кадра/сек
Цветовое пространство : YUV
Субдискретизация насыщенности : 4:2:0
Битовая глубина : 8 бит
Тип развёртки : Прогрессивная
Бит/(Пиксели*Кадры) : 0.257
Размер потока : 11,1 Гбайт (89%)
Заголовок : Life of Pi 3D (2012)
Библиотека кодирования : x264 core 128 r2216 198a7ea
Настройки программы : cabac=1 / ref=4 / deblock=1:-3:-3 / analyse=0x3:0x113 / me=umh / subme=10 / psy=1 / psy_rd=1.00:0.15 / mixed_ref=1 / me_range=16 / chroma_me=1 / trellis=2 / 8x8dct=1 / cqm=0 / deadzone=21,11 / fast_pskip=1 / chroma_qp_offset=-3 / threads=3 / lookahead_threads=1 / sliced_threads=0 / nr=0 / decimate=0 / interlaced=0 / bluray_compat=0 / constrained_intra=0 / bframes=8 / b_pyramid=2 / b_adapt=2 / b_bias=0 / direct=3 / weightb=1 / open_gop=0 / weightp=2 / keyint=240 / keyint_min=23 / scenecut=40 / intra_refresh=0 / rc_lookahead=60 / rc=2pass / mbtree=0 / bitrate=12800 / ratetol=1.0 / qcomp=0.70 / qpmin=0 / qpmax=69 / qpstep=4 / cplxblur=20.0 / qblur=0.5 / vbv_maxrate=40000 / vbv_bufsize=40000 / nal_hrd=none / frame-packing=4 / ip_ratio=1.40 / pb_ratio=1.30 / aq=1:0.90
Язык : English
Default : Да
Forced : Нет
Аудио #1
Идентификатор : 2
Формат : AC-3
Формат/Информация : Audio Coding 3
Расширение режима : CM (complete main)
Параметр Endianness формата : Big
Идентификатор кодека : A_AC3
Продолжительность : 2 ч. 6 м.
Вид битрейта : Постоянный
Битрейт : 640 Кбит/сек
Каналы : 6 каналов
Расположение каналов : Front: L C R, Side: L R, LFE
Частота : 48,0 КГц
Битовая глубина : 16 бит
Метод сжатия : С потерями
Размер потока : 581 Мбайт (5%)
Заголовок : AC3 / 5.1 ch / 640 kbps / Русский дубляж, R5
Язык : Russian
Default : Да
Forced : Нет
Аудио #2
Идентификатор : 3
Формат : AC-3
Формат/Информация : Audio Coding 3
Расширение режима : CM (complete main)
Параметр Endianness формата : Big
Идентификатор кодека : A_AC3
Продолжительность : 2 ч. 6 м.
Вид битрейта : Постоянный
Битрейт : 640 Кбит/сек
Каналы : 6 каналов
Расположение каналов : Front: L C R, Side: L R, LFE
Частота : 48,0 КГц
Битовая глубина : 16 бит
Метод сжатия : С потерями
Размер потока : 581 Мбайт (5%)
Заголовок : AC3 / 5.1 ch / 640 kbps / Английский Original, BD
Язык : English
Default : Нет
Forced : Нет
Текст #1
Идентификатор : 4
Формат : UTF-8
Идентификатор кодека : S_TEXT/UTF8
Идентификатор кодека/Информация : UTF-8 Plain Text
Заголовок : Forced
Язык : Russian
Default : Да
Forced : Нет
Текст #2
Идентификатор : 5
Формат : UTF-8
Идентификатор кодека : S_TEXT/UTF8
Идентификатор кодека/Информация : UTF-8 Plain Text
Заголовок : Full
Язык : Russian
Default : Нет
Forced : Нет
Текст #3
Идентификатор : 6
Формат : UTF-8
Идентификатор кодека : S_TEXT/UTF8
Идентификатор кодека/Информация : UTF-8 Plain Text
Заголовок : Forced
Язык : English
Default : Нет
Forced : Нет
Текст #4
Идентификатор : 7
Формат : UTF-8
Идентификатор кодека : S_TEXT/UTF8
Идентификатор кодека/Информация : UTF-8 Plain Text
Заголовок : Full
Язык : English
Default : Нет
Forced : Нет
Меню
00:00:00.000 : :Chapter 01
00:03:58.821 : :Chapter 02
00:11:13.172 : :Chapter 03
00:15:24.924 : :Chapter 04
00:21:29.621 : :Chapter 05
00:25:44.542 : :Chapter 06
00:29:46.826 : :Chapter 07
00:31:31.014 : :Chapter 08
00:35:34.298 : :Chapter 09
00:45:24.346 : :Chapter 10
00:50:21.893 : :Chapter 11
00:54:13.333 : :Chapter 12
00:57:18.351 : :Chapter 13
01:00:07.395 : :Chapter 14
01:04:12.056 : :Chapter 15
01:09:32.084 : :Chapter 16
01:11:48.053 : :Chapter 17
01:13:34.284 : :Chapter 18
01:16:47.561 : :Chapter 19
01:21:31.177 : :Chapter 20
01:23:10.026 : :Chapter 21
01:26:30.852 : :Chapter 22
01:31:21.434 : :Chapter 23
01:34:13.856 : :Chapter 24
01:43:42.674 : :Chapter 25
01:47:38.660 : :Chapter 26
01:55:20.079 : :Chapter 27
01:59:16.274 : :Chapter 28

Скриншоты

- 13.03.2013
Торрент файл перезалит в связи с выходом лицензионного звука. Просьба перекачать!
-
Яндекс.Метрика
Рейтинг@Mail.ru