[ Сегодня на трекере фрилич! Идет свободное скачивание без начисления Download ]

Робинзон Крузо: Очень обитаемый остров / Robinson Crusoe (Винсент Кестелут / Vincent Kesteloot, Бен Стассен / Ben Stassen) [2016 г., мультфильм, комедия, приключения, BDRip-AVC] Dub [Лицензия] + Original (Ger) + Sub (Ger)

 

Создавать темы 27-Сен-2016 02:22

-Робинзон Крузо: Очень обитаемый остров / Robinson Crusoe-- Производство: Франция, Бельгия / nWave Pictures, Studio Canal, uFilm.
Год выпуска: 2016 г.
Жанр: мультфильм, комедия, приключения
Продолжительность: 01:30:27Мировая премьера: 4 февраля 2016
Российская премьера: 14 апреля 2016, «Вольга»
Перевод: Профессиональный (полное дублирование) [Лицензия]
Оригинальный аудиопоток: немецкийРежиссер: Винсент Кестелут / Vincent Kesteloot, Бен Стассен / Ben Stassen-В ролях: Рон Аллен (Bosun), Джордж Бэббит (Sleeping Sailor), Лайла Берзиньш (Rosie), Илька Бессин (Tapir Rosie, озвучка), Джои Камен (Scrubby), Джефф Дусетте (Mal), Джефф Дусетте (Pango), Сэнди Фокс (Epi), Дитер Халлерворден (Ziegenbock Zottel, озвучка), Кайл Херберт (Tom Cat), Мэриев Херингтон (Kiki), Дэвид Ховард (Tuesday)-Описание: Все знают историю о Робинзоне Крузо, попавшем на необитаемый остров. Однако, как же можно назвать его необитаемым, если он населен разнообразными веселыми животными и птицами? Они очень удивились, впервые встретив это странное существо, и даже приняли его за морское чудовище. Попугаю по кличке Вторник и его друзьям — хамелеону, тапиру и другим обитателям острова предстоит поближе познакомиться с незнакомым зверем «человеком» и вместе с ним пережить массу опасных и веселых приключений.-
Качество видео: BDRip-AVC
Контейнер: MKV
Видео кодек: MPEG4 AVC
Аудио кодек: AC3
Видео: 1108x464 (2,40:1), 2554 kbps, 23,976 fps, 0.207 bit/pixel
Аудио: AC3 / 5.1 / 48 kHz / 448 kbps / 16 bit
Аудио #2: AC3 / 5.1 / 48 kHz / 448 kbps / 16 bit
Cубтитры: немецкие
Формат субтитров: softsub (SSA/ASS)
Доп. информация о субтитрах: включаемые

Рецензия

Робинзон Крузо и очень недоверчивые животные.Мультфильм начинается своего рода с конца. Нам сразу показывают события, которые произойдут. Далее следуют флеш-беки, в которых нас знакомят с героем и с его историей.Мультфильм очень яркий и красочный. Он живой. Каждый кадр детально продуман и хорошо прорисован. Линия каждого персонажа видна хорошо. Каждое животное с острова имеет свой особенный и индивидуальный характер, они имеют свои вкусы и.. . конечно же у каждого разная степень доверия к нашему главному герою — Робинзону Крузо.Когда сюжет захватывает нас с головой, не могу не отметить своего рода «операторскую работу», некоторые сцены были настолько хорошо и красиво сделаны, что казалось, что это всё «снято» одним кадром. Особенно порадовала сцена «резкий спуск вниз через препятствия», я думаю каждый зритель поймёт, потому что этот отрезок действительно сделали очень качественно.Робинзон Крузо — молодой мужчина, картограф, который попал в шторм и очутился на необитаемом острове. По началу он не знает, кто его обитатели и довольно-таки сильно их боится. Собственно, как и жители острова бояться его. Далее следует развитие сюжета, который с удовольствием затянет с головой в гущу событий. Наш герой всегда имеет благородный вид, даже когда зарастёт бородой, всё равно остаётся симпатия к Робинзону Крузо. В каких-то местах он возможно неряшлив, неуклюж, но у него доброе сердце и он готов помогать всему миру.Главным другом нашего героя становится попугай по имени Вторник, который всеми силами пытался найти ответ на главный вопрос: А что же там, дальше за океаном… Вторник был самым доверчивым среди всех обитателей и с лёгкостью подружился с Робинзоном. А тот в свою очередь показывал ему, какой мир на самом деле существует за пределами острова.Не обошлось и без капли «зла» в мультфильме. Как мы уже привыкли, практически в каждом поучительном мультфильме должен быть баланс и борьба между бодром и злом. Но вынуждена признать, что лично для меня — зло показано не совсем корректно. По сути две кошки виноваты были лишь в том, что хотели кушать, природа брала над ними вверх и им приходилось идти на хитрость, чтобы не умереть с голода. Особенно потом, когда они создали настоящую семью на острове.В целом мультфильм очень хороший. Для семейного просмотра годиться на все 100%. Единственное, что я бы обязательно раскрыла детям сущность таких домашних животных, как кошка. Чтобы маленький зритель после просмотра данного мультфильма не имел негативного отношения к животному.7 из 10

Media Info

Общее
Уникальный идентификатор : 254235821814610720333451463021699217544 (0xBF4409C8949C1772BA0BC39D5EAF3888)
Полное имя : J:\Робинзон Крузо\Robinzon Kruzo.Ochenj Obitaemyj Ostrov.2016.BDRip.GER-Transfer.[pirat.ca].mkv
Формат : Matroska
Версия формата : Version 2
Размер файла : 2,18 Гбайт
Продолжительность : 1 ч. 30 м.
Общий поток : 3447 Кбит/сек
Дата кодирования : UTC 2016-09-26 13:16:49
Программа кодирования : mkvmerge v5.3.0 ('I could have danced') built on Feb 9 2012 10:38:07
Библиотека кодирования : libebml v1.2.3 + libmatroska v1.3.0Видео
Идентификатор : 1
Формат : AVC
Формат/Информация : Advanced Video Codec
Профиль формата : [email protected]/* */
Параметр CABAC формата : Да
Параметр ReFrames формата : 10 кадров
Идентификатор кодека : V_MPEG4/ISO/AVC
Продолжительность : 1 ч. 30 м.
Битрейт : 2554 Кбит/сек
Ширина : 1108 пикселей
Высота : 464 пикселя
Соотношение сторон : 2,40:1
Режим частоты кадров : Постоянный
Частота кадров : 23,976 (24000/1001) кадра/сек
Цветовое пространство : YUV
Субдискретизация насыщенности : 4:2:0
Битовая глубина : 8 бит
Тип развёртки : Прогрессивная
Бит/(Пиксели*Кадры) : 0.207
Размер потока : 1,57 Гбайт (72%)
Заголовок : GER-Transfer
Библиотека кодирования : x264 core 148 r2694M 3b70645
Настройки программы : cabac=1 / ref=10 / deblock=1:-1:-1 / analyse=0x3:0x133 / me=umh / subme=11 / psy=1 / psy_rd=1.10:0.10 / mixed_ref=1 / me_range=32 / chroma_me=1 / trellis=2 / 8x8dct=1 / cqm=0 / deadzone=21,11 / fast_pskip=0 / chroma_qp_offset=-3 / threads=9 / lookahead_threads=2 / sliced_threads=0 / nr=0 / decimate=0 / interlaced=0 / bluray_compat=0 / constrained_intra=0 / bframes=11 / b_pyramid=2 / b_adapt=2 / b_bias=0 / direct=3 / weightb=1 / open_gop=0 / weightp=2 / keyint=240 / keyint_min=23 / scenecut=40 / intra_refresh=0 / rc_lookahead=100 / rc=2pass / mbtree=0 / bitrate=2554 / ratetol=1.0 / qcomp=0.70 / qpmin=0 / qpmax=69 / qpstep=4 / cplxblur=20.0 / qblur=0.5 / vbv_maxrate=50000 / vbv_bufsize=60000 / nal_hrd=none / filler=0 / ip_ratio=1.40 / pb_ratio=1.30 / aq=1:0.80
Язык : French
Default : Да
Forced : НетАудио #1
Идентификатор : 2
Формат : AC-3
Формат/Информация : Audio Coding 3
Расширение режима : CM (complete main)
Параметр Endianness формата : Big
Идентификатор кодека : A_AC3
Продолжительность : 1 ч. 30 м.
Вид битрейта : Постоянный
Битрейт : 448 Кбит/сек
Каналы : 6 каналов
Расположение каналов : Front: L C R, Side: L R, LFE
Частота : 48,0 КГц
Частота кадров : 31,250 кадров/сек (1536 spf)
Метод сжатия : С потерями
Размер потока : 290 Мбайт (13%)
Заголовок : Dub | DD 5.1 @ 448 kbps - Blu-ray | GER-Transfer | RUS
Язык : Russian
Default : Да
Forced : НетАудио #2
Идентификатор : 3
Формат : AC-3
Формат/Информация : Audio Coding 3
Расширение режима : CM (complete main)
Параметр Endianness формата : Big
Идентификатор кодека : A_AC3
Продолжительность : 1 ч. 30 м.
Вид битрейта : Постоянный
Битрейт : 448 Кбит/сек
Каналы : 6 каналов
Расположение каналов : Front: L C R, Side: L R, LFE
Частота : 48,0 КГц
Частота кадров : 31,250 кадров/сек (1536 spf)
Метод сжатия : С потерями
Размер потока : 290 Мбайт (13%)
Заголовок : Original | DD 5.1 @ 448 kbps | GER-Transfer
Язык : German
Default : Нет
Forced : НетТекст
Идентификатор : 4
Формат : UTF-8
Идентификатор кодека : S_TEXT/UTF8
Идентификатор кодека/Информация : UTF-8 Plain Text
Заголовок : SDH | GER-Transfer
Язык : German
Default : Нет
Forced : НетМеню
00:00:00.000 : :(01)00:00:00:000
00:11:40.323 : :(02)00:11:40:323
00:24:47.067 : :(03)00:24:47:067
00:35:02.266 : :(04)00:35:02:266
00:44:30.208 : :(05)00:44:30:208
00:54:34.271 : :(06)00:54:34:271
01:04:27.280 : :(07)01:04:27:280
01:15:12.631 : :(08)01:15:12:631
01:25:14.649 : :(09)01:25:14:649BDInfo Report
DISC INFO:Disc Title: ROBINSONCRUSOE
Disc Size: 17 065 135 463 bytes
Protection: AACS
BD-Java: Yes
Extras: 50Hz Content
BDInfo: 0.5.8PLAYLIST REPORT:Name: 00003.MPLS
Length: 1:29:37.791 (h:m:s.ms)
Size: 15 570 843 648 bytes
Total Bitrate: 23,16 MbpsVIDEO:Codec Bitrate Deion
----- ------- -----------
MPEG-4 AVC Video 17878 kbps 1080p / 24 fps / 16:9 / High Profile 4.0AUDIO:Codec Language Bitrate Deion
----- -------- ------- -----------
DTS-HD Master Audio Russian 4005 kbps 5.1 / 48 kHz / 4005 kbps / 24-bit (DTS Core: 5.1 / 48 kHz / 1509 kbps / 24-bit)

Скриншот c названием фильма

Скриншоты

Трейлер

Яндекс.Метрика
Рейтинг@Mail.ru