Ночные стражи (Эмилис Веливис) [2016 г., фэнтези, боевик, CamRip]

 

Создавать темы 27-Сен-2016 02:13

-Ночные стражи«Отдел борьбы с нечистью ждет новую кровь»- -Производство: Россия
Режиссер: Эмилис Веливис
Жанр: фэнтези, боевик
Год выпуска: 2016 г.
Продолжительность: 01:34:54
Российская премьера: 25 августа 2016-В ролях: Иван Янковский, Любовь Аксенова, Леонид Ярмольник, Михаил Евланов, Сабина Ахмедова, Константин Адаев, Юрий Ваксман, Алексей Дмитриев, Денис Бузин, Евгений Косырев-Описание: Оборотни, упыри и ведьмы - существуют. Если вы до сих пор не сталкивались с ними, то это заслуга отдела по надзору за представителями альтернативной жизни.Обычный курьер случайно становится свидетелем зачистки нечисти в одном из столичных отелей, после чего получает новую работу.
Сотрудники отдела «Н» не бессмертны, но даже вампирам они не по зубам.-Сэмпл КиноПоиск-Качество видео: CamRip
Контейнер: AVI
Видео кодек: XviD
Аудио кодек: AC3
Видео: 720x304 (2.37:1), 25 fps, XviD build 50 ~1859 kbps avg, 0.34 bit/pixel
Аудио: 48 kHz, AC3 Dolby Digital, 2/0 (L,R) ch, ~192.00 kbps avg
Cубтитры: отсутствуют
D:\Torrents\Nocnie.Stragi.2016.O.CAMRip.14OOMB.avi

Media Info

General
Complete name : D:\Torrents\Nocnie.Stragi.2016.O.CAMRip.14OOMB.avi
Format : AVI
Format/Info : Audio Video Interleave
File size : 1.37 GiB
Duration : 1h 34mn
Overall bit rate : 2 062 Kbps
Writing application : VirtualDubMod 1.5.10.2 (build 2540/release)
Writing library : VirtualDubMod build 2540/release
Video #0
ID : 0
Format : MPEG-4 Visual
Format profile : Advanced [email protected]/* */
Format settings, BVOP : 2
Format settings, QPel : No
Format settings, GMC : No warppoints
Format settings, Matrix : Custom
Codec ID : XVID
Codec ID/Hint : XviD
Duration : 1h 34mn
Bit rate : 1 860 Kbps
Width : 720 pixels
Height : 304 pixels
Display aspect ratio : 2.35:1
Frame rate : 25.000 fps
Color space : YUV
Chroma subsampling : 4:2:0
Bit depth : 8 bits
Scan type : Progressive
Compression mode : Lossy
Bits/(Pixel*Frame) : 0.340
Stream size : 1.23 GiB (90%)
Writing library : XviD 1.2.1 (UTC 2008-12-04)
Audio #1
ID : 1
Format : AC-3
Format/Info : Audio Coding 3
Mode extension : CM (complete main)
Format settings, Endianness : Big
Codec ID : 2000
Duration : 1h 34mn
Bit rate mode : Constant
Bit rate : 192 Kbps
Channel count : 2 channels
Channel positions : Front: L R
Sampling rate : 48.0 KHz
Bit depth : 16 bits
Compression mode : Lossy
Stream size : 130 MiB (9%)
Alignment : Split accross interleaves
Interleave, duration : 40 ms (1.00 video frame)
Interleave, preload duration : 500 ms

Скриншоты

Яндекс.Метрика
Рейтинг@Mail.ru