Великолепная семерка / The Magnificent Seven (Антуан Фукуа / Antoine Fuqua) [2016, Вестерн, Боевик, TS] DUB (звук с TS)

 

Создавать темы 26-Сен-2016 17:36

Великолепная семерка / The Magnificent Seven-- Год: 2016
Производство: США, Metro-Goldwyn-Mayer (MGM), Columbia Pictures, LStar Capital
Жанр: Вестерн, Боевик
Режиссер: Антуан Фукуа
Продюсер:
Роджер Бирнбаум, Тодд Блэк, Брюс Берман
Актеры: Крис Пратт, Хейли Беннетт, Винсент Д’Онофрио, Дензел Вашингтон, Мэтт Бомер, Итан Хоук, Кэм Жиганде, Питер Сарсгаард, Винни Джонс, Ли Бён-хон
Описание:
Семеро отважных искателей приключений встают на защиту жителей маленького городка, угнетаемого бандой грабителей.

SAMPLE
Возраст: 16+ (зрителям, достигшим 16 лет)
Рейтинг MPAA: PG-13 (детям до 13 лет просмотр нежелателен)
Дата мировой премьеры: 22 сентября 2016
Дата российской премьеры: 23 сентября 2016, «WDSSPR»
Продолжительность: 02:08:15
Качество видео: TS
Перевод: Дублированный
Вид субтитров: Отсутствуют
Реклама: Присутствуют голосовые и текстовые вставки рекламы "Вулкан"
Видео: XviD, 720x304, 1899 kb/s
Аудио: 48 kHz, AC3 Dolby Digital, 2/0 (L,R) ch, ~384 kbps

МИ

Общее
Формат                                   : AVI
Формат/Информация                        : Audio Video Interleave
Профиль формата                          : OpenDML
Размер файла                             : 2,05 Гбайт
Продолжительность                        : 2 ч. 8 м.
Общий поток                              : 2292 Кбит/сек
Программа кодирования                    : VirtualDubMod 1.5.10.2 (build 2540/release)
Библиотека кодирования                   : VirtualDubMod build 2540/release
Видео
Идентификатор                            : 0
Формат                                   : MPEG-4 Visual
Профиль формата                          : Advanced [email protected]
Параметр BVOP формата                    : 2
Параметр QPel формата                    : Нет
Параметр GMC формата                     : Без точки перехода
Параметр матрицы формата                 : Выборочная
Идентификатор кодека                     : XVID
Идентификатор кодека/Подсказка           : XviD
Продолжительность                        : 2 ч. 8 м.
Битрейт                                  : 1893 Кбит/сек
Ширина                                   : 720 пикселей
Высота                                   : 304 пикселя
Соотношение сторон                       : 2,35:1
Частота кадров                           : 29,970 кадров/сек
Цветовое пространство                    : YUV
Субдискретизация насыщенности            : 4:2:0
Битовая глубина                          : 8 бит
Тип развёртки                            : Прогрессивная
Метод сжатия                             : С потерями
Бит/(Пиксели*Кадры)                      : 0.289
Размер потока                            : 1,70 Гбайт (83%)
Библиотека кодирования                   : XviD 1.2.1 (UTC 2008-12-04)
Аудио
Идентификатор                            : 1
Формат                                   : AC-3
Формат/Информация                        : Audio Coding 3
Расширение режима                        : CM (complete main)
Параметр Endianness формата              : Big
Идентификатор кодека                     : 2000
Продолжительность                        : 2 ч. 8 м.
Вид битрейта                             : Постоянный
Битрейт                                  : 384 Кбит/сек
Каналы                                   : 2 канала
Расположение каналов                     : Front: L R
Частота                                  : 48,0 КГц
Метод сжатия                             : С потерями
Размер потока                            : 352 Мбайт (17%)
Выравнивание                             : Разделение по промежуткам
Продолжительность промежутка             : 33  мс. (1,00 видеокадр)
Время предзагрузки промежутка            : 500  мс.
Скриншоты:


Последний раз редактировалось: naryshev (2016-09-26 18:12), всего редактировалось 2 раз(а)

Создавать темы 26-Сен-2016 17:40 (спустя 4 минуты)

Новинка проката!
Господа, сидирую сам и от себя, поэтому прошу поддержать
Яндекс.Метрика
Рейтинг@Mail.ru