Королевский генерал / Le général du roi (Нина Компанез / Nina Companeez) [2013 г., драма, SATRip] MVO

 

Создавать темы 26-Сен-2016 06:30

-Королевский генерал / Le général du roi-- Производство: Франция
Год выпуска: 2013 г.
Жанр: драма
Продолжительность: 01:48:56Мировая премьера: 4 января 2014
Перевод: Профессиональный (многоголосый, закадровый) ["СВ-Дубль" по заказу ГТРК "Культура"]
Режиссер: Нина Компанез / Nina Companeez-В ролях: Луиз Моно / Louise Monot (Constance), Самюэль Ле Бьян / Samuel Le Bihan (Francois Denis), Наташа Линдингер / Natacha Lindinger (Marie Morgane), Жан-Пьер Лори / Jean-Pierre Lorit (Henri Charler), Сара Биасини / Sarah Biasini (Marie Anne), Николя Жиро / Nicolas Giraud (Tristan), Николя Бергер-Вашон / Nicolas Berger-Vachon (Louis Jean)-Описание: 18 век. Констанс Аллард, самая младшая из семьи мелкопоместных дворян, скромно обитает в своем доме в Ванде. В день своего 18-летия девушка повстречалась с Франсуа — Дени Брильхак, морским офицером, который оказался на десять лет ее старше. От одной искры разгорелось бушующее пламя их любви. Однако не все так гладко…-
Качество видео: SATRip
Контейнер: AVI
Видео кодек: XviD
Аудио кодек: AC3
Видео: 704x384 (1.83:1), 25 fps, XviD build 65 ~1706 kbps avg, 0.25 bit/pixel
Аудио: 48 kHz, AC3 Dolby Digital, 2/0 (L,R) ch, ~192 kbps
Cубтитры: отсутствуют

Media Info

Общее
Полное имя : C:\герои 7\Королевский генерал\Korolevskij General.2014.SATRip.[pirat.ca].avi
Формат : AVI
Формат/Информация : Audio Video Interleave
Размер файла : 1,45 Гбайт
Продолжительность : 1 ч. 48 м.
Общий поток : 1909 Кбит/сек
Программа кодирования : VirtualDubMod 1.5.10.2 (build 2540/release)Видео
Идентификатор : 0
Формат : MPEG-4 Visual
Профиль формата : Advanced [email protected]/* */
Параметр BVOP формата : 1
Параметр QPel формата : Нет
Параметр GMC формата : Без точки перехода
Параметр матрицы формата : Выборочная
Идентификатор кодека : XVID
Идентификатор кодека/Подсказка : XviD
Продолжительность : 1 ч. 48 м.
Битрейт : 1707 Кбит/сек
Ширина : 704 пикселя
Высота : 384 пикселя
Соотношение сторон : 1,85:1
Частота кадров : 25,000 кадров/сек
Цветовое пространство : YUV
Субдискретизация насыщенности : 4:2:0
Битовая глубина : 8 бит
Тип развёртки : Прогрессивная
Метод сжатия : С потерями
Бит/(Пиксели*Кадры) : 0.253
Размер потока : 1,30 Гбайт (89%)
Библиотека кодирования : XviD 65Аудио
Идентификатор : 1
Формат : AC-3
Формат/Информация : Audio Coding 3
Расширение режима : CM (complete main)
Параметр Endianness формата : Big
Идентификатор кодека : 2000
Продолжительность : 1 ч. 48 м.
Вид битрейта : Постоянный
Битрейт : 192 Кбит/сек
Каналы : 2 канала
Расположение каналов : Front: L R
Частота : 48,0 КГц
Частота кадров : 31,250 кадров/сек (1536 spf)
Метод сжатия : С потерями
Размер потока : 150 Мбайт (10%)
Выравнивание : Разделение по промежуткам
Продолжительность промежутка : 40 мс. (1,00 видеокадр)
Время предзагрузки промежутка : 500 мс.
Заголовок : Профессиональный (многоголосый закадровый) Культура

Скриншот c названием фильма

Скриншоты

Трейлер

Яндекс.Метрика
Рейтинг@Mail.ru