Команда уничтожить / Kill Command (Стивен Гомез / Steven Gomez) [2016 г., ужасы, фантастика, боевик, WEB-DL, 720p] MVO [Parovoz Production]

 

Создавать темы 26-Сен-2016 06:22

-Команда уничтожить / Kill Command-- Производство: Великобритания
Год выпуска: 2016 г.
Жанр: ужасы, фантастика, боевик
Продолжительность: 01:39:32Мировая премьера: 13 мая 2016
Перевод: Любительский (многоголосый, закадровый) [Parovoz Production]
Режиссер: Стивен Гомез / Steven Gomez-В ролях: Ванесса Кирби, Туре Линдхардт, Дэвид Аджала, Майк Ноубл, Том МакКэй, Бентли Калу, Оси Окерафор, Дебора Росан, Келли Гоф, Тим Ахерн-Описание: Недалекое будущее. Экспериментальный отряд специальных агентов высаживается на необитаемом острове для прохождения интенсивных боевых учений. Но на острове высадился кто-то еще. И это — не люди…-
Качество видео: WEB-DL
Контейнер: MKV
Стандарт разрешения: 720p
Видео кодек: MPEG4 AVC
Аудио кодек: AC3
Видео: 2739 Кбит/сек, 1280х536, 24,000 кадра/сек
Аудио: 384 Кбит/сек, 6 каналов, 48,0 КГц, AC3
Аудио #2: 640 Кбит/сек, 6 каналов, 48,0 КГц, AC3
Cубтитры: отсутствуют

Рецензия

Люблю роботов, потому что они логичныКогда я увидела трейлер, то сразу поняла, что фильм мне понравится. В голове промелькнула мысль «Моя тема». Да, начало стереотипное, но по-другому его не обыграешь. Как еще отряд солдат попал бы на закрытый тренировочный полигон? В принципе, если вникать в сюжет, то лишних вопросов не возникает. Меня лишь один раз поставила в тупик сцена, когда при приближении S.A.R., находящаяся без сознания Миллс на секунду пришла в себя, обменялась какой-то информацией с роботом, и снова отрубилась. А жадный до потрошения кишочков железный монстр как ни в чем не бывало пошел дальше в лес. А, ну еще момент, когда тот же S.A.R. при первой встрече загрузил в Миллс информацию. Это должно иметь какой-то смысл, иначе не понятно, зачем эти сцены вообще есть в фильме. Возможно, просто я недопоняла.Почему именно этот отряд отправляется на полигон? В комментарии выше автор спрашивает» чем особенность этого специального отряда военных». Да ни в чем. В фильме четко оговаривается «поедем мы, потому что другие заняты». Был запрос на проведение учений, они на этот запрос отреагировали. Собственно поэтому и нет никаких продуманных стратегических ходов. Это же простое учение, чего тут выдумывать? И первое сражение, как раз в рамках учения, наши солдаты хорошо отыграли. И потом уже выяснили, что тренируются не они, а на них.С точки зрения робототехники роботы просто шикарны, и самое большое их очарование в логичности. Потренировались на манекенах — как-то скучно лупить по бездушным болванкам, которые даже убежать не в состоянии. Пошли стрелять оленей — и тут без особого разнообразия: противник не особо умен. Ну и что остается делать машинкам? Правильно, звать на помощь людей!Мне в фильме не хватило идеи. То, что показали, было интересно, но слишком поверхностно для меня. Создатели фильма пытались нас к чему-то подвести, но так и не решились. Например, я ждала пересечения сюжета с сюжетом «Крикунов», ибо как-то подозрительно, что убивать могут и роботы-пулеметы, а окровавленным ходит только S.A.R. Если он программирует машины, зачем подходит к противнику вплотную, зачем рисковать имеющимися данными? Возникает навязчивая мысль, что он препарирует поверженного солдата. Иначе зачем ему утаскивать тело уже убитого Бродяги? Но почему-то нам эту сторону учений не показали. Вот так и осталось напоследок чувство некой недосказанности.Но фильм в общем мне понравился. Смотрела с удовольствием.

Media Info

Общее
Уникальный идентификатор : 245032854020475284151577373989320160522 (0xB8579C7080F15B08B1E852BDA076750A)
Полное имя : F:\Команда уничтожить\Komanda UniCHtozitj.2016.BDRip.720p.[pirat.ca].mkv
Формат : Matroska
Версия формата : Version 2
Размер файла : 2,67 Гбайт
Продолжительность : 1 ч. 39 м.
Общий поток : 3839 Кбит/сек
Название фильма : Команда уничтожить (2016)
Дата кодирования : UTC 2016-09-25 12:20:48
Программа кодирования : mkvmerge v5.3.0 ('I could have danced') built on Feb 9 2012 10:38:07
Библиотека кодирования : libebml v1.2.3 + libmatroska v1.3.0Видео
Идентификатор : 1
Формат : AVC
Формат/Информация : Advanced Video Codec
Профиль формата : [email protected]/* */
Параметр CABAC формата : Да
Параметр ReFrames формата : 10 кадров
Идентификатор кодека : V_MPEG4/ISO/AVC
Продолжительность : 1 ч. 39 м.
Битрейт : 2739 Кбит/сек
Ширина : 1280 пикселей
Высота : 536 пикселей
Соотношение сторон : 2,40:1
Режим частоты кадров : Постоянный
Частота кадров : 24,000 кадра/сек
Цветовое пространство : YUV
Субдискретизация насыщенности : 4:2:0
Битовая глубина : 8 бит
Тип развёртки : Прогрессивная
Бит/(Пиксели*Кадры) : 0.166
Размер потока : 1,90 Гбайт (71%)
Библиотека кодирования : x264 core 146 r2538 121396c
Настройки программы : cabac=1 / ref=10 / deblock=1:-1:-1 / analyse=0x3:0x113 / me=umh / subme=10 / psy=1 / psy_rd=1.00:0.00 / mixed_ref=1 / me_range=32 / chroma_me=1 / trellis=2 / 8x8dct=1 / cqm=0 / deadzone=21,11 / fast_pskip=0 / chroma_qp_offset=-2 / threads=12 / lookahead_threads=2 / sliced_threads=0 / nr=0 / decimate=1 / interlaced=0 / bluray_compat=0 / constrained_intra=0 / bframes=8 / b_pyramid=2 / b_adapt=2 / b_bias=0 / direct=1 / weightb=1 / open_gop=0 / weightp=2 / keyint=240 / keyint_min=23 / scenecut=40 / intra_refresh=0 / rc_lookahead=40 / rc=crf / mbtree=0 / crf=18.5 / qcomp=0.60 / qpmin=0 / qpmax=69 / qpstep=4 / vbv_maxrate=14000 / vbv_bufsize=14000 / crf_max=0.0 / nal_hrd=none / filler=0 / ip_ratio=1.40 / pb_ratio=1.30 / aq=1:1.00
Default : Да
Forced : Нет
Statistics Tags Issue : mkvmerge v8.3.0 ('Over the Horizon') 64bit 2016-05-24 03:37:32 / mkvmerge v5.3.0 ('I could have danced') built on Feb 9 2012 10:38:07 2016-09-25 12:20:48
FromStats_BitRate : 2813106
FromStats_Duration : 01:39:32.042000000
FromStats_FrameCount : 143329
FromStats_StreamSize : 2099999027Аудио #1
Идентификатор : 2
Формат : AC-3
Формат/Информация : Audio Coding 3
Расширение режима : CM (complete main)
Параметр Endianness формата : Big
Идентификатор кодека : A_AC3
Продолжительность : 1 ч. 39 м.
Вид битрейта : Постоянный
Битрейт : 384 Кбит/сек
Каналы : 6 каналов
Расположение каналов : Front: L C R, Side: L R, LFE
Частота : 48,0 КГц
Частота кадров : 31,250 кадров/сек (1536 spf)
Метод сжатия : С потерями
Задержка видео : 4 мс.
Размер потока : 273 Мбайт (10%)
Заголовок : MVO [Parovoz Production]
Язык : Russian
Default : Да
Forced : Нет
Statistics Tags Issue : mkvmerge v8.3.0 ('Over the Horizon') 64bit 2016-05-24 03:37:32 / mkvmerge v5.3.0 ('I could have danced') built on Feb 9 2012 10:38:07 2016-09-25 12:20:48
FromStats_BitRate : 384000
FromStats_Duration : 01:39:31.520000000
FromStats_FrameCount : 186610
FromStats_StreamSize : 286632960Аудио #2
Идентификатор : 3
Формат : AC-3
Формат/Информация : Audio Coding 3
Расширение режима : CM (complete main)
Параметр Endianness формата : Big
Идентификатор кодека : A_AC3
Продолжительность : 1 ч. 39 м.
Вид битрейта : Постоянный
Битрейт : 640 Кбит/сек
Каналы : 6 каналов
Расположение каналов : Front: L C R, Side: L R, LFE
Частота : 48,0 КГц
Частота кадров : 31,250 кадров/сек (1536 spf)
Метод сжатия : С потерями
Размер потока : 456 Мбайт (17%)
Язык : English
Default : Нет
Forced : Нет
Statistics Tags Issue : mkvmerge v8.3.0 ('Over the Horizon') 64bit 2016-05-24 03:37:32 / mkvmerge v5.3.0 ('I could have danced') built on Feb 9 2012 10:38:07 2016-09-25 12:20:48
FromStats_BitRate : 640000
FromStats_Duration : 01:39:32.000000000
FromStats_FrameCount : 186625
FromStats_StreamSize : 477760000Меню
00:00:00.000 : en:Chapter 1
00:07:15.750 : en:Chapter 2
00:14:09.666 : en:Chapter 3
00:23:17.750 : en:Chapter 4
00:32:02.208 : en:Chapter 5
00:43:22.083 : en:Chapter 6
00:50:01.625 : en:Chapter 7
00:58:01.833 : en:Chapter 8
01:07:32.000 : en:Chapter 9
01:13:58.791 : en:Chapter 10
01:23:59.333 : en:Chapter 11
01:30:35.791 : en:Chapter 12

Скриншот c названием фильма

Скриншоты

Трейлер

Яндекс.Метрика
Рейтинг@Mail.ru