[ Сегодня на трекере фрилич! Идет свободное скачивание без начисления Download ]

Любовь и дружба / Love & Friendship (Уит Стиллман / Whit Stillman) [2016 г., драма, мелодрама, комедия, BDRip, 720p] Dub iTunes + Original (Eng) + Sub (Eng)

 

Создавать темы 26-Сен-2016 06:14

-Любовь и дружба / Love & Friendship-- Производство: Ирландия, Нидерланды, Франция, США, Великобритания, Blinder Films, Centre National de la Cinématographie et de l'Image Animée
Год выпуска: 2016 г.
Жанр: драма, мелодрама, комедия
Продолжительность: 01:33:18Мировая премьера: 23 января 2016
Российская премьера: 18 августа 2016, «Экспонента»
Перевод: Профессиональный (полное дублирование) [МОСФИЛЬМ-мастер («Экспонента») 2016]
Оригинальный аудиопоток: английскийРежиссер: Уит Стиллман / Whit Stillman-В ролях: Кейт Бекинсейл, Морфидд Кларк, Том Беннетт, Дженн Мюррэй, Лохлэйнн О’Меарайн, Софи Радермахер, Клоэ Севиньи, Стивен Фрай, Джордан Уоллер, Росс Мак Махон-Описание: Прекрасная молодая вдова леди Сьюзан приезжает в имение семьи покойного мужа переждать, пока в высшем обществе перестанут судачить о ее похождениях, и придумать, как поправить свое финансовое положение. Не теряя времени даром, она решает подыскать богатого мужа себе и своей юной дочери. В ход идут не только красота и обаяние, но и острый насмешливый ум и невероятный талант плести интриги.-
Качество видео: BDRip
Контейнер: MKV
Стандарт разрешения: 720p
Видео кодек: MPEG4 AVC
Аудио кодек: AC3
Видео: 1280x692 (1.85:1), 23.976 fps, MPEG-4 AVC ~6 335 kbps avg
Аудио: 48 kHz, AC3 Dolby Digital, 3/2 (L,C,R,l,r) + LFE ch, ~384 kbps
Аудио #2: 48 kHz, AC3 Dolby Digital, 3/2 (L,C,R,l,r) + LFE ch, ~640 kbps
Cубтитры: английские
Формат субтитров: softsub (SSA/ASS)
Доп. информация о субтитрах: включаемые

Доп. информация

Фильм снят по роману Джейн Остин «Леди Сьюзан», который не был опубликован при жизни автора. «Леди Сьюзен» — название, которое племянник Джейн Остин дал ее безымянному манускрипту, когда в 1871 году родные писательницы наконец разрешили его опубликовать.
«Любовь и дружба» — название, которое выбрала съемочная группа фильма и в частности режиссер Уит Стиллман. Было решено, что для фильма с развернутой сюжетной линией и новыми персонажами лучше подходит характерное для работ Остин название «Любовь и дружба», которое позаимствовали у ее раннего рассказа «Love and Freindship» (сохранено орфографически неверное авторское написание).
Кастинг начался осенью 2013 года в Лондоне с Морфидд Кларк, которая только что закончила театральный. Она стала первой актрисой, которую утвердили на роль Фредерики.
Второй фильм, где Уит Стиллман, Хлоя Севиньи и Кейт Бекинсейл работают вместе. Хлоя Севиньи сыграла главную героиню фильма Уита Стиллмана «Последние дни диско». Ее партнером по съемкам стала Кейт Бекинсейл.
Кейт Бекинсейл сыграла главную роль в британском мини-сериале «Эмма» по мотивам одноименного романа Джейн Остин.

Рецензия

Интриганка остиновского времениО, это просто изумительная на мой вкус экранизация романа Остин «Леди Сьюзен»! Этакая конфетка с необычным сочетанием вкуса. Классическая подача — все камерно, небольшое поле действий, немного пейзажей, немного интерьеров 19 века, платья, прически, шляпки… Все как прописала Джейн. Под классическую же музыку — никаких новомодных мелодий. Язык — когда надо не упустить, следить за речью героев, не современной по подаче, но такой актуальный по сути. И столько сарказма, остроты, иронии. Столько абсолютно сегодняшних проблемы! Я получила огромное просто удовольствие от данной экранизации. Кейт Бекинсейл — невероятна! Она просто срослась с этой ролью. Такая расчетливая, холодная, умная интриганка. Это как раз то кино, где актерская игра на высоте. Игра взглядами, мимикой, словом. За минутное появление на экране — образ, цельный и сразу же можно представить всю историю персонажа.Никакого экшена, никаких спецэффектов, да даже действия активного немного. Но тем не менее мне ни секунды не было скучно! Это Остин — уже зрелая, гораздо более саркастичная, очень умная и все же — романтичная. Что радует! Так что поклонникам английской писательницы — рекомендую!9 из 10

Media Info

Общее
Уникальный идентификатор : 184593884262438557788025257060932385734 (0x8ADF7D2A33529F178514D32448E1FBC6)
Полное имя : F:\Любовь и дружба\Love & Friendship.2016.D.BDRip.720p.[pirat.ca].mkv
Формат : Matroska
Версия формата : Version 2
Размер файла : 4,13 Гбайт
Продолжительность : 1 ч. 33 м.
Общий поток : 6339 Кбит/сек
Дата кодирования : UTC 2016-09-25 15:53:35
Программа кодирования : mkvmerge v5.3.0 ('I could have danced') built on Feb 9 2012 10:38:07
Библиотека кодирования : libebml v1.2.3 + libmatroska v1.3.0Видео
Идентификатор : 1
Формат : AVC
Формат/Информация : Advanced Video Codec
Профиль формата : [email protected]/* */
Параметр CABAC формата : Да
Параметр ReFrames формата : 9 кадров
Идентификатор кодека : V_MPEG4/ISO/AVC
Продолжительность : 1 ч. 33 м.
Битрейт : 5189 Кбит/сек
Ширина : 1280 пикселей
Высота : 692 пикселя
Соотношение сторон : 1,85:1
Режим частоты кадров : Постоянный
Частота кадров : 23,976 (24000/1001) кадра/сек
Цветовое пространство : YUV
Субдискретизация насыщенности : 4:2:0
Битовая глубина : 8 бит
Тип развёртки : Прогрессивная
Бит/(Пиксели*Кадры) : 0.244
Размер потока : 3,38 Гбайт (82%)
Библиотека кодирования : x264 core 148 r2705+54 9f484c1 t_mod_Custom [[email protected]/* */ X86_64]
Настройки программы : cabac=1 / ref=9 / deblock=1:-3:-3 / analyse=0x3:0x133 / me=umh / subme=10 / psy=1 / fade_compensate=0.00 / psy_rd=1.00:0.00 / mixed_ref=1 / me_range=32 / chroma_me=1 / trellis=2 / 8x8dct=1 / cqm=0 / deadzone=21,11 / fast_pskip=0 / chroma_qp_offset=-2 / threads=8 / lookahead_threads=1 / sliced_threads=0 / nr=0 / decimate=0 / interlaced=0 / bluray_compat=0 / constrained_intra=0 / fgo=0 / bframes=8 / b_pyramid=2 / b_adapt=2 / b_bias=0 / direct=3 / weightb=1 / open_gop=0 / weightp=2 / keyint=250 / keyint_min=23 / scenecut=40 / intra_refresh=0 / rc_lookahead=150 / rc=crf / mbtree=0 / crf=16.1000 / qcomp=0.60 / qpmin=0:0:0 / qpmax=69:69:69 / qpstep=4 / vbv_maxrate=62500 / vbv_bufsize=78125 / crf_max=0.0 / nal_hrd=none / filler=0 / ip_ratio=1.30 / pb_ratio=1.20 / aq=1:0.80 / aq-sensitivity=10.00 / aq-factor=1.00:1.00:1.00 / aq2=0 / aq3=0
Язык : English
Default : Да
Forced : Нет
Цветовой диапазон : Limited
Коэффициенты матрицы : BT.709
Statistics Tags Issue : mkvmerge v8.3.0 ('Over the Horizon') 64bit 2016-09-14 19:59:22 / mkvmerge v5.3.0 ('I could have danced') built on Feb 9 2012 10:38:07 2016-09-25 15:53:35
FromStats_BitRate : 5313123
FromStats_Duration : 01:33:18.593000000
FromStats_FrameCount : 134232
FromStats_StreamSize : 3718251834Аудио #1
Идентификатор : 2
Формат : AC-3
Формат/Информация : Audio Coding 3
Расширение режима : CM (complete main)
Параметр Endianness формата : Big
Идентификатор кодека : A_AC3
Продолжительность : 1 ч. 33 м.
Вид битрейта : Постоянный
Битрейт : 384 Кбит/сек
Каналы : 6 каналов
Расположение каналов : Front: L C R, Side: L R, LFE
Частота : 48,0 КГц
Частота кадров : 31,250 кадров/сек (1536 spf)
Метод сжатия : С потерями
Размер потока : 256 Мбайт (6%)
Язык : Russian
Default : Да
Forced : Нет
Statistics Tags Issue : mkvmerge v8.3.0 ('Over the Horizon') 64bit 2016-09-14 19:59:22 / mkvmerge v5.3.0 ('I could have danced') built on Feb 9 2012 10:38:07 2016-09-25 15:53:35
FromStats_BitRate : 384000
FromStats_Duration : 01:33:18.656000000
FromStats_FrameCount : 174958
FromStats_StreamSize : 268735488Аудио #2
Идентификатор : 3
Формат : AC-3
Формат/Информация : Audio Coding 3
Расширение режима : CM (complete main)
Параметр Endianness формата : Big
Идентификатор кодека : A_AC3
Продолжительность : 1 ч. 33 м.
Вид битрейта : Постоянный
Битрейт : 640 Кбит/сек
Каналы : 6 каналов
Расположение каналов : Front: L C R, Side: L R, LFE
Частота : 48,0 КГц
Частота кадров : 31,250 кадров/сек (1536 spf)
Метод сжатия : С потерями
Размер потока : 427 Мбайт (10%)
Язык : English
Default : Нет
Forced : Нет
Statistics Tags Issue : mkvmerge v8.3.0 ('Over the Horizon') 64bit 2016-09-14 19:59:22 / mkvmerge v5.3.0 ('I could have danced') built on Feb 9 2012 10:38:07 2016-09-25 15:53:35
FromStats_BitRate : 640000
FromStats_Duration : 01:33:18.624000000
FromStats_FrameCount : 174957
FromStats_StreamSize : 447889920Текст #1
Идентификатор : 4
Формат : UTF-8
Идентификатор кодека : S_TEXT/UTF8
Идентификатор кодека/Информация : UTF-8 Plain Text
Язык : English
Default : Нет
Forced : Нет
Statistics Tags Issue : mkvmerge v8.3.0 ('Over the Horizon') 64bit 2016-09-14 19:59:22 / mkvmerge v5.3.0 ('I could have danced') built on Feb 9 2012 10:38:07 2016-09-25 15:53:35
FromStats_BitRate : 91
FromStats_Duration : 01:29:09.885000000
FromStats_FrameCount : 1470
FromStats_StreamSize : 61232Текст #2
Идентификатор : 5
Формат : UTF-8
Идентификатор кодека : S_TEXT/UTF8
Идентификатор кодека/Информация : UTF-8 Plain Text
Заголовок : SDH
Язык : English
Default : Нет
Forced : Нет
Statistics Tags Issue : mkvmerge v8.3.0 ('Over the Horizon') 64bit 2016-09-14 19:59:22 / mkvmerge v5.3.0 ('I could have danced') built on Feb 9 2012 10:38:07 2016-09-25 15:53:35
FromStats_BitRate : 95
FromStats_Duration : 01:29:09.885000000
FromStats_FrameCount : 1549
FromStats_StreamSize : 64122Меню
00:00:00.000 : en:Chapter 1
00:06:18.962 : en:Chapter 2
00:14:33.581 : en:Chapter 3
00:22:33.686 : en:Chapter 4
00:29:48.620 : en:Chapter 5
00:34:52.382 : en:Chapter 6
00:41:29.237 : en:Chapter 7
00:47:13.956 : en:Chapter 8
00:51:01.225 : en:Chapter 9
00:53:26.745 : en:Chapter 10
00:59:29.399 : en:Chapter 11
01:04:45.131 : en:Chapter 12
01:07:36.761 : en:Chapter 13
01:13:18.769 : en:Chapter 14
01:19:51.036 : en:Chapter 15
01:25:54.483 : en:Chapter 16

Скриншот c названием фильма

Скриншоты

Трейлер

Яндекс.Метрика
Рейтинг@Mail.ru