Шкатулка проклятия (Одержимость) / The Possession (Уле Борнедаль / Ole Bornedal) [2012 г., ужасы, триллер, BDRip, 720p] Dub [Лицензия] + Sub (Rus, Eng)

 

Создавать темы 26-Сен-2016 06:11

-Шкатулка проклятия (Одержимость) / The Possession-- Производство: США, Ghost House Pictures, North Box Productions
Год выпуска: 2012 г.
Жанр: ужасы, триллер
Продолжительность: 01:32:13Мировая премьера: 30 августа 2012
Российская премьера: 30 августа 2012, «West»
Дата выхода DVD: 15 января 2013, «West Video»
Дата выхода Blu-Ray: 15 января 2013, «West Video»Перевод: Профессиональный (полное дублирование) [Лицензия]
Режиссер: Уле Борнедаль / Ole Bornedal-В ролях: Джеффри Дин Морган, Наташа Калис, Кира Седжвик, Мэдисон Девенпорт, Роб ЛаБелль, Матисьяху, Джей Бразо, Грант Шоу, Нана Гбивонио, Анна Хэган-Описание: Девочка покупает винтажную шкатулку на ярмарке в одном из соседних дворов. Поначалу родители не видят повода для беспокойства, когда их младшая дочь становится одержима новой игрушкой. Со временем поведение девочки становится все более странным, а реакции неожиданными, родители пытаются раскрыть секрет шкатулки. Они не подозревают, что в деревянной коробке живет злой дух, который творит страшные вещи со своими хозяевами — их было много и владели они этим «сокровищем» очень недолго. Отец девочки объединяется с бывшей женой в попытках найти способ снять проклятие с их ребенка.-
Качество видео: BDRip
Контейнер: MKV
Стандарт разрешения: 720p
Видео кодек: MPEG4 AVC
Аудио кодек: AC3
Видео: AVC, 1280x530 (2.40:1) at 23.976 fps, AVC at 6132 kbps avg, 0.377 bit/pixel
Аудио: 48 kHz, AC3 Dolby Digital, 3/2 (L,C,R,l,r) + LFE ch, 640.00 kbps
Cубтитры: Русские, английские

Доп. информация

На фоне трейлера звучат слова из песни Rammstein — «Engel».
Стивен Саско, Моира Буффини и Ивэн Кац работали над первоначальной версией сценария.
Первоначально Американская Киноассоциация присудила рейтинг R за «насилие, ужас и чрезмерно волнующие образы». Фильм был отредактирован и в итоге получил рейтинг PG-13 за «материал взрослой тематики с применением насилия и волнующих сцен».
Изначально создатели планировали назвать фильм «Dybbuk Box» (англ. Dibbuk Box — «Шкатулка Диббука»). Диббук — в еврейском фольклоре злой дух умершего злого человека, вселяющийся в живое существо. Но в итоге выбрали название «Possession», которое одновременно означает и «владение над чем-либо», и «одержимость».

Награды

Сатурн, 2013 год
Номинации (1):
Лучшее Blu-Ray/DVD-издание

Рецензия

Кто такой диббук?Что же, после просмотра «Шкатулки проклятья», или же «Possession», что мне как-то ближе, я знаю, кто он такой — злой дух в еврейском фольклоре, являющийся душой умершего злого человека. Безусловно, узнать это было интересно, т. к. до этой картины с подобным я не сталкивалась. Фильм мне понравился, немного пощекотал нервы, и по полочкам плюсы и минусы я разложу с удовольствием.Атмосфера. Фильм показался мне немного затянутым и местами было, откровенно говоря, нудновато, но в остальном сохранялась интрига и легкий налет мистики. Может быть, виной моя закаленность годами интереса к ужасам и подобного рода сюжетам, но страшно не было почти до самого конца. Отдельно отмечу чудеснейших мотыльков, глядя на которых, я не пугалась, а, скорее, умилялась. А так как я ориентировалась все же на хоррор, то +0,5.Актеры и их игра. В целом все хорошо. Игра была естественной, и местами создавалось впечатление, что «основано на реальных событиях» не просто маркетинговый ход. +1 за реалистичность игры.Джеффри Дин Морган мне очень понравился. И внешне, и своей игрой. К его персонажу у меня также ноль претензий — он был хорошо раскрыт, интересен сам по себе и отнюдь не глуп, чем частенько грешат герои (а особенно, героини) фильмов ужасов. И, честно, я все никак не могла понять, почему это героиня Киры Седжвик постоянно на него наезжала и придиралась, и зачем ей вообще был нужен какой-то там ухажер, когда у нее уже был под рукой такой шикарный мужчина? Я бы от такого не ушла. +1 ему от чистого сердца.К слову, Кира Седжвик тоже была хороша, хоть я и не могла иногда понять ее героиню. Как и тех комментаторов, которые утверждали, что актриса была выбрана на роль неудачно. Со своей задачей она справилась, +1.Очень порадовали Наташа Калис и Мэдисон Девенпорт, во-первых тем, что действительно похожи внешне и напоминают сестер, а во-вторых, опять таки убедительной игрой. +1 каждой.Сюжет. Истории об одержимости не новы в принципе. Интерес добавляет необычность потустороннего вторженца и присутствие драматической линии. Много внимания уделяется именно внутрисемейным отношениям муж-жена и отцы-и-дети. Лично меня порадовали разные незначительные детали быта, которыми разнятся жизнь с матерью и отцом, и другие мелочи. В остальном же сюжет похож на стандартные истории об одержимых с хэппи эндом, но +1 получает все равно.Мини +0,5 за то, что моему удивлению конца-краю не было, когда я узнала, что Абизу женщина. В то время диббук был для меня существом сугубо мужского пола.Message. Помимо стандартного набора для хоррора, в фильме поднимается тема семейных ценностей и конфликтов, взаимного доверия и т. д. Что ж, ничего особенного, но +1 за разнообразие.Добавлю, что фильм вышел не очень страшный, и вряд ли придется по вкусу любителям острых ощущений, но вместе с тем хороший и интересный, достойный8 из 10

Media Info

Общее
Уникальный идентификатор : 187616678122603555319414794753289848932 (0x8D25A8689D1B6F68B9A9375EEA058864)
Полное имя : F:\Шкатулка проклятия (2012)\The Possession.2012.BDRip.720p.[pirat.ca].mkv
Формат : Matroska
Версия формата : Version 2
Размер файла : 4,45 Гбайт
Продолжительность : 1 ч. 32 м.
Общий поток : 6909 Кбит/сек
Дата кодирования : UTC 2016-09-25 16:34:30
Программа кодирования : mkvmerge v5.3.0 ('I could have danced') built on Feb 9 2012 10:38:07
Библиотека кодирования : libebml v1.2.3 + libmatroska v1.3.0Видео
Идентификатор : 1
Формат : AVC
Формат/Информация : Advanced Video Codec
Профиль формата : [email protected]/* */
Параметр CABAC формата : Да
Параметр ReFrames формата : 8 кадров
Идентификатор кодека : V_MPEG4/ISO/AVC
Продолжительность : 1 ч. 32 м.
Битрейт : 6132 Кбит/сек
Ширина : 1280 пикселей
Высота : 530 пикселей
Соотношение сторон : 2,40:1
Режим частоты кадров : Постоянный
Частота кадров : 23,976 (24000/1001) кадра/сек
Цветовое пространство : YUV
Субдискретизация насыщенности : 4:2:0
Битовая глубина : 8 бит
Тип развёртки : Прогрессивная
Бит/(Пиксели*Кадры) : 0.377
Размер потока : 3,95 Гбайт (89%)
Библиотека кодирования : x264 core 125 r2208 d9d2288
Настройки программы : cabac=1 / ref=8 / deblock=1:-3:-3 / analyse=0x3:0x133 / me=umh / subme=11 / psy=1 / psy_rd=1.00:0.15 / mixed_ref=1 / me_range=32 / chroma_me=1 / trellis=2 / 8x8dct=1 / cqm=0 / deadzone=21,11 / fast_pskip=0 / chroma_qp_offset=-3 / threads=12 / lookahead_threads=2 / sliced_threads=0 / nr=0 / decimate=1 / interlaced=0 / bluray_compat=0 / constrained_intra=0 / bframes=8 / b_pyramid=2 / b_adapt=2 / b_bias=0 / direct=1 / weightb=1 / open_gop=0 / weightp=2 / keyint=250 / keyint_min=23 / scenecut=40 / intra_refresh=0 / rc=crf / mbtree=0 / crf=17.5 / qcomp=0.60 / qpmin=0 / qpmax=69 / qpstep=4 / ip_ratio=1.40 / pb_ratio=1.30 / aq=2:1.00
Язык : English
Default : Да
Forced : НетАудио
Идентификатор : 2
Формат : AC-3
Формат/Информация : Audio Coding 3
Расширение режима : CM (complete main)
Параметр Endianness формата : Big
Идентификатор кодека : A_AC3
Продолжительность : 1 ч. 32 м.
Вид битрейта : Постоянный
Битрейт : 640 Кбит/сек
Каналы : 6 каналов
Расположение каналов : Front: L C R, Side: L R, LFE
Частота : 48,0 КГц
Частота кадров : 31,250 кадров/сек (1536 spf)
Метод сжатия : С потерями
Размер потока : 422 Мбайт (9%)
Заголовок : Dub
Язык : Russian
Default : Да
Forced : ДаТекст #1
Идентификатор : 3
Формат : UTF-8
Идентификатор кодека : S_TEXT/UTF8
Идентификатор кодека/Информация : UTF-8 Plain Text
Заголовок : Full
Язык : Russian
Default : Нет
Forced : НетТекст #2
Идентификатор : 4
Формат : UTF-8
Идентификатор кодека : S_TEXT/UTF8
Идентификатор кодека/Информация : UTF-8 Plain Text
Заголовок : Full
Язык : English
Default : Нет
Forced : НетТекст #3
Идентификатор : 5
Формат : UTF-8
Идентификатор кодека : S_TEXT/UTF8
Идентификатор кодека/Информация : UTF-8 Plain Text
Заголовок : Full @ SDH
Язык : English
Default : Нет
Forced : НетТекст #4
Идентификатор : 6
Формат : UTF-8
Идентификатор кодека : S_TEXT/UTF8
Идентификатор кодека/Информация : UTF-8 Plain Text
Заголовок : Full @ SDH-Color
Язык : English
Default : Нет
Forced : НетМеню
00:00:00.000 : en:en:00:00:00.000
00:03:36.506 : en:en:00:03:36.506
00:08:00.313 : en:en:00:08:00.313
00:11:01.743 : en:en:00:11:01.743
00:13:24.720 : en:en:00:13:24.720
00:16:57.015 : en:en:00:16:57.015
00:20:51.250 : en:en:00:20:51.250
00:25:05.128 : en:en:00:25:05.128
00:30:09.974 : en:en:00:30:09.974
00:35:03.559 : en:en:00:35:03.559
00:39:06.177 : en:en:00:39:06.177
00:43:04.540 : en:en:00:43:04.540
00:46:16.815 : en:en:00:46:16.815
00:50:02.457 : en:en:00:50:02.457
00:52:48.707 : en:en:00:52:48.707
00:55:26.573 : en:en:00:55:26.573
00:57:09.926 : en:en:00:57:09.926
01:01:59.340 : en:en:01:01:59.340
01:05:47.568 : en:en:01:05:47.568
01:08:22.097 : en:en:01:08:22.097
01:12:05.404 : en:en:01:12:05.404
01:17:08.749 : en:en:01:17:08.749
01:24:01.911 : en:en:01:24:01.911
01:26:42.238 : en:en:01:26:42.238

Скриншот c названием фильма

Скриншоты

Трейлер

Яндекс.Метрика
Рейтинг@Mail.ru