Арка / ARQ (2016) WEBRip от Portablius | L2

 

Создавать темы 25-Сен-2016 17:30

Информация о фильме
Название: Арка
Оригинальное название: ARQ
Год выхода: 2016
Жанр: Фантастика, триллер
Режиссер: Тони Эллиотт
В ролях: Робби Амелл, Рэйчел Тейлор, Грэй Пауэлл, Джейкоб Нийем, Шон Бенсон, Адам Батчер, Джейми Спильчук
О фильме: Будущее Земли зависит от новой технологии, но на пути к выживании планеты — неожиданный поворот. Запертые в лаборатории и застрявшие во временной петле, дезориентированные герои пытаются скрыться от захватчиков в масках, одновременно сохранив новый источник энергии, который может спасти человечество.

Страна: США
Студия: Lost City, MXN Entertainment , XYZ Films
Продолжительность: 01:27:43
Перевод: Любительский (двухголосый, закадровый) (RecentFilms)
Субтитры: Нет
Релиз Без Рекламы!
Семпл
Файл
Кодек: XviD
Качество: WEBRip
Видео: 688x288 (2.39:1), 23.976 fps, XviD build 73 ~982 kbps avg, 0.21 bit/pixel
Звук: 48 kHz, MPEG Layer 3, 2 ch, ~192.00 kbps avg

MediaInfo

General
Complete name : ARQ.2016.L2.WEBRip.ot.Portablius.avi
Format : AVI
Format/Info : Audio Video Interleave
File size : 743 MiB
Duration : 1h 27mn
Overall bit rate : 1 184 Kbps
Writing application : VirtualDubMod 1.5.10.3 | www.virtualdub-fr.org || (build 2550/release)
Writing library : VirtualDubMod build 2550/release
Video
ID : 0
Format : MPEG-4 Visual
Format profile : Advanced [email protected]
Format settings, BVOP : 1
Format settings, QPel : No
Format settings, GMC : No warppoints
Format settings, Matrix : Custom
Codec ID : XVID
Codec ID/Hint : XviD
Duration : 1h 27mn
Bit rate : 983 Kbps
Width : 688 pixels
Height : 288 pixels
Display aspect ratio : 2.40:1
Frame rate : 23.976 fps
Color space : YUV
Chroma subsampling : 4:2:0
Bit depth : 8 bits
Scan type : Progressive
Compression mode : Lossy
Bits/(Pixel*Frame) : 0.207
Stream size : 617 MiB (83%)
Writing library : XviD 73
Audio
ID : 1
Format : MPEG Audio
Format version : Version 1
Format profile : Layer 3
Codec ID : 55
Codec ID/Hint : MP3
Duration : 1h 27mn
Bit rate mode : Constant
Bit rate : 192 Kbps
Channel(s) : 2 channels
Sampling rate : 48.0 KHz
Compression mode : Lossy
Stream size : 120 MiB (16%)
Alignment : Aligned on interleaves
Interleave, duration : 42 ms (1.00 video frame)
Interleave, preload duration : 504 ms
Writing library : LAME3.99r
Encoding settings : -m s -V 4 -q 2 -lowpass 18.6 -b 192

Скриншоты

Яндекс.Метрика
Рейтинг@Mail.ru