[ Сегодня на трекере фрилич! Идет свободное скачивание без начисления Download ]

Мой кореш - зомби / Amigo Undead (Райан Нагата / Ryan Nagata) [2015, Ужасы, Комедия, HDRip]

 

Создавать темы 25-Сен-2016 10:22

Мой кореш - зомби / Amigo Undead-- Производство: США
Жанр: Ужасы, Комедия
Режиссер: Райан Нагата
Актеры: Рэндолл Парк, Дейв Шеридан, Дэвид Кленнон, Джефф Брайан Дэвис, Джош Фэйдем, Стив Эйджи, Сара Томко, Райан Ридли, Дарла Делгадо, Дель Самора
Описание:
"Мой кореш - зомби" - это история Кевина Островски, который отправляется со своим братом-неудачником, Нормом, в поход. С ними отправляется несколько чудаковатых друзей Норма. Когда один из друзей случайно умирает в пустыне, они принимают решение похоронить его там, но дело принимает непредвиденный оборот, поскольку пустынька-то оказывается с секретом.


Продолжительность: 01:23:58
Качество видео: HDRip pic
Перевод: Любительский (двухголосый, закадровый)
Автор перевода: den904 & DeadSno (ненормативная лексика)
Субтитры: Отсутствуют
Реклама: Присутствуют голосовые и текстовые вставки.
Видео: Xvid, 720x400 (16:9), 23.976 fps, 2285 Kbps (0.331 bit/pixel)
Аудио: AC3, 2 ch, 192 kbps, CBR

МИ

General
Complete name : C:\Фильмы\Amigo.Undead.2015.HDRip.avi
Format : AVI
Format/Info : Audio Video Interleave
Format profile : OpenDML
File size : 1.46 GiB
Duration : 1h 24mn
Overall bit rate : 2 487 Kbps
Movie name : Rip by basma4i
Writing application : Lavf57.41.100
Video
ID : 0
Format : MPEG-4 Visual
Format profile : [email protected]
Format settings, BVOP : No
Format settings, QPel : No
Format settings, GMC : No warppoints
Format settings, Matrix : Default (H.263)
Codec ID : XVID
Codec ID/Hint : XviD
Duration : 1h 23mn
Bit rate : 2 285 Kbps
Width : 720 pixels
Height : 400 pixels
Display aspect ratio : 16:9
Frame rate : 23.976 fps
Color space : YUV
Chroma subsampling : 4:2:0
Bit depth : 8 bits
Scan type : Progressive
Compression mode : Lossy
Bits/(Pixel*Frame) : 0.331
Stream size : 1.34 GiB (92%)
Writing library : XviD 67
Audio
ID : 1
Format : AC-3
Format/Info : Audio Coding 3
Mode extension : CM (complete main)
Format settings, Endianness : Big
Codec ID : 2000
Duration : 1h 24mn
Bit rate mode : Constant
Bit rate : 192 Kbps
Channel(s) : 2 channels
Channel positions : Front: L R
Sampling rate : 48.0 KHz
Bit depth : 16 bits
Compression mode : Lossy
Stream size : 115 MiB (8%)
Alignment : Aligned on interleaves
Interleave, duration : 32 ms (0.77 video frame)
Скриншоты:
Яндекс.Метрика
Рейтинг@Mail.ru