[ Сегодня на трекере фрилич! Идет свободное скачивание без начисления Download ]

31: Праздник смерти / 31 (Роб Зомби / Rob Zombie) [2016, Ужасы, Триллер, WEB-DLRip]

 

Создавать темы 25-Сен-2016 10:13

31: Праздник смерти / 31--- Производство: США, Великобритания
Жанр: Ужасы, Триллер
Режиссер: Роб Зомби
Актеры: Шери Мун Зомби, Джеффри Дэниэл Филлипс, Лоуренс Хилтон-Джакобс, Мег Фостер, Кевин Джексон, Малкольм МакДауэлл, Джейн Карр, Джуди Гисон, Ричард Брэйк, Панчо Молер
Описание:
История пяти людей, которые были похищены за пять дней до Хэллоуина и оказались пленниками в сотворенном человеком аду. Там им предстоит сыграть на выживание в жестокой игре под названием «31».


Возраст: 18+ (зрителям, достигшим 18 лет. запрещено для детей)
Рейтинг MPAA: R (лицам до 17 лет обязательно присутствие взрослого)
Дата мировой премьеры: 23 января 2016
Дата российской премьеры: 15 сентября 2016, «Вольга»
Продолжительность: 01:42:54
Качество видео: WEB-DLRip pic
Перевод: Многоголосый закадровый, любительский (СПД)
Реклама: присутствуют аудио и видео вставки рекламы.
Видео: Xvid, 720x304, 1 700 kb/s
Аудио: AC3, 2 ch, 192 kb/s

МИ

31.pPa3dH1k.CmePti.2016.P.WEB-DLRip.14OOMB.avi
Format                      : AVI
Format/Info                 : Audio Video Interleave
File size                   : 1.37 GiB
Duration                    : 1 h 42 min
Overall bit rate            : 1 901 kb/s
Movie name                  : 31.pPa3dH1k.CmePti.2016.P.WEB-DLRip.14OOMB
Writing application         : VirtualDubMod 1.5.10.2 (build 2540/release)
Original source form/Name   : Movie
Video
ID                          : 0
Format                      : MPEG-4 Visual
Format profile              : Advanced [email protected]
Format settings, BVOP       : 2
Format settings, QPel       : No
Format settings, GMC        : No warppoints
Format settings, Matrix     : Custom
Codec ID                    : XVID
Codec ID/Hint               : XviD
Duration                    : 1 h 42 min
Bit rate                    : 1 700 kb/s
Width                       : 720 pixels
Height                      : 304 pixels
Display aspect ratio        : 2.35:1
Frame rate                  : 23.976 (24000/1001) FPS
Color space                 : YUV
Chroma subsampling          : 4:2:0
Bit depth                   : 8 bits
Scan type                   : Progressive
Compression mode            : Lossy
Bits/(Pixel*Frame)          : 0.324
Stream size                 : 1.22 GiB (89%)
Writing library             : XviD 1.2.1 (UTC 2008-12-04)
Audio
ID                          : 1
Format                      : AC-3
Format/Info                 : Audio Coding 3
Mode extension              : CM (complete main)
Format settings, Endianness : Big
Codec ID                    : 2000
Duration                    : 1 h 42 min
Bit rate mode               : Constant
Bit rate                    : 192 kb/s
Channel(s)                  : 2 channels
Channel positions           : Front: L R
Sampling rate               : 48.0 kHz
Frame rate                  : 31.250 FPS (1536 spf)
Compression mode            : Lossy
Stream size                 : 141 MiB (10%)
Alignment                   : Split accross interleaves
Interleave, duration        : 42  ms (1.00 video frame)
Interleave, preload duratio : 500  ms
Скриншоты:
Яндекс.Метрика
Рейтинг@Mail.ru