[ Сегодня на трекере фрилич! Идет свободное скачивание без начисления Download ]

Доспехи Бога 3: Миссия Зодиак / Chinese Zodiac (Джеки Чан / Jackie Chan) [2012 г., Боевик, комедия, приключения, BDRip 1080p] [Вертикальная анаморфная стереопара / Half OverUnder] Dub [лицензия]

 

Создавать темы 05-Янв-2014 18:40

-Доспехи Бога 3: Миссия Зодиак
Chinese Zodiac
«Охота за сокровищами началась»
-- Производство: Гонконг, Китай, Emperor Classic Films, Emperor Dragon Movies, Emperor Motion Pictures
Год выпуска: 2012 г.
Жанр: Боевик, комедия, приключения
Продолжительность: 02:03:20
Мировая премьера: 12 декабря 2012
Дата выхода DVD: 14 марта 2013, «CP Дистрибуция»
Перевод: Профессиональный (полное дублирование) [лицензия]
Оригинальный аудиопоток: Китайский
Режиссер: Джеки Чан / Jackie Chan-В ролях: Джеки Чан, Квон Сан У, Ляо Фань, Синтхун Яо, Чжан Ланьсинь, Лаура Вейссбеккер, Оливер Плэтт, Эмили Гуйо, Кэйтлин Дешель, Кенни Джи-Описание: Группа в обновленном составе направляется на тропический остров, где среди обломков севшего на мель корабля спрятаны еще две статуэтки. В тропиках Джею Си и его друзьям противостоит банда разношерстных пиратов. Только благодаря безупречным боевым навыкам героя удается одержать верх. Вернувшись домой, Джей Си с удивлением узнает, что таинственный заказчик уже собрал шесть других статуэток. Ничего удивительного в том, что Ястреб собирается преподать ему урок хороших манер.- -Качество видео: BDRip 1080p
Контейнер: MKV
Формат 3D: Вертикальная анаморфная стереопара / Half OverUnder
Видео кодек: H.264
Аудио кодек: AC3
Видео: AVC, 1920x1080 (16:9), 23.976 fps, 18.7 Mbps (0.376 bit/pixel)
Аудио: Rus: AC-3, 48.0 KHz, 6 ch, 448 Kbps, CBR (дубляж - лицензия)
Cубтитры: отсутствуют

Media Info

Общее
Уникальный идентификатор : 210069401690839120809002270439095989657 (0x9E09E526087C54DEB1BCD72458D0F599)
Полное имя : G:\Chinese.Zodiac.3D.Half_OverUnder.BDRip.1080p[pirat.ca].mkv
Формат : Matroska
Версия формата : Version 3 / Version 2
Размер файла : 16,8 Гбайт
Продолжительность : 2 ч. 3 м.
Режим общего битрейта : Переменный
Общий поток : 19,5 Мбит/сек
Название фильма : Chinese Zodiac 3D {Jackie Chan} 2012 [BDRip 1080p]
Дата кодирования : UTC 2013-03-13 19:30:39
Программа кодирования : mkvmerge v5.8.0 ('No Sleep / Pillow') built on Sep 2 2012 15:37:04
Библиотека кодирования : libebml v1.2.3 + libmatroska v1.3.0
Видео
Идентификатор : 1
Формат : AVC
Формат/Информация : Advanced Video Codec
Профиль формата : [email protected]
MultiView_Count : 2
MultiView_Layout : Top-Bottom (left eye first)
Параметр CABAC формата : Да
Параметр ReFrames формата : 2 кадра
Идентификатор кодека : V_MPEG4/ISO/AVC
Продолжительность : 2 ч. 3 м.
Вид битрейта : Переменный
Битрейт : 18,7 Мбит/сек
Максимальный битрейт : 28,7 Мбит/сек
Ширина : 1920 пикселей
Высота : 1080 пикселей
Соотношение сторон : 16:9
Режим частоты кадров : Постоянный
Частота кадров : 23,976 кадра/сек
Цветовое пространство : YUV
Субдискретизация насыщенности : 4:2:0
Битовая глубина : 8 бит
Тип развёртки : Прогрессивная
Бит/(Пиксели*Кадры) : 0.376
Размер потока : 16,1 Гбайт (96%)
Заголовок : Chinese Zodiac 3D BDrip 1080р
Язык : English
Default : Да
Forced : Нет
Аудио
Идентификатор : 2
Формат : AC-3
Формат/Информация : Audio Coding 3
Расширение режима : CM (complete main)
Параметр Endianness формата : Big
Идентификатор кодека : A_AC3
Продолжительность : 2 ч. 3 м.
Вид битрейта : Постоянный
Битрейт : 448 Кбит/сек
Каналы : 6 каналов
Расположение каналов : Front: L C R, Side: L R, LFE
Частота : 48,0 КГц
Битовая глубина : 16 бит
Метод сжатия : С потерями
Размер потока : 394 Мбайт (2%)
Заголовок : Дубляж (лицензия)
Язык : Russian
Default : Да
Forced : Нет
Меню
00:00:00.000 : en:(01)00:00:00:000
00:11:28.020 : en:(02)00:11:28:020
00:18:16.428 : en:(03)00:18:16:428
00:25:15.347 : en:(04)00:25:15:347
00:33:39.559 : en:(05)00:33:39:559
00:44:12.107 : en:(06)00:44:12:107
00:55:15.312 : en:(07)00:55:15:312
01:10:04.241 : en:(08)01:10:04:241
01:16:55.777 : en:(09)01:16:55:777
01:25:34.087 : en:(10)01:25:34:087
01:39:21.705 : en:(11)01:39:21:705
01:50:38.423 : en:(12)01:50:38:423
02:03:05.294 : en:(13)02:03:05:294

Скриншоты

-Проверено на встроенном плеере LG 42PW451-ZD.
-
Яндекс.Метрика
Рейтинг@Mail.ru