[ Сегодня на трекере фрилич! Идет свободное скачивание без начисления Download ]

Я, робот 3D / I, Robot 3D (Алекс Пройас / Alex Proyas) [2004 г., фантастика, боевик, триллер, детектив, BDRip 1080p] [Горизонтальная анаморфная стереопара / Half SideBySide] Dub + Sub (Rus, Eng) + Original (Eng)

 

Создавать темы 05-Янв-2014 18:31

-Я, робот 3D
I, Robot 3D
«Предвидел только он.»
-- Производство: США, Германия / 20th Century Fox Film Corporation
Год выпуска: 2004 г.
Жанр: фантастика, боевик, триллер, детектив
Продолжительность: 01:54:44
Мировая премьера: 15 июля 2004
Российская премьера: 5 августа 2004, «Гемини Киномир»
Дата выхода DVD: 30 октября 2008, «Двадцатый Век Фокс СНГ»
Дата выхода Blu-Ray: 26 февраля 2009, «Двадцатый Век Фокс СНГ»
Перевод: Профессиональный (полное дублирование)
Оригинальный аудиопоток: английский
Режиссер: Алекс Пройас / Alex Proyas-В ролях: Уилл Смит, Бриджет Мойнэхэн, Алан Тьюдик, Джеймс Кромуэлл, Брюс Гринвуд, Чи МакБрайд, Шайа ЛаБаф, Адриан Рикард, Джерри Вассерман, Фиона Хоган
Роли дублировали: Станислав Концевич, Светлана Репетина, Максим Сергеев, Игорь Шибанов, Валерий Кухарешин-Описание: Действие фильма происходит в будущем (2035 г.), где роботы являются обычными помощниками человека. Главный герой — полицейский, «не переваривающий» роботов, расследует дело об убийстве, в которое оказывается вовлечен робот.
Речь идет о возможном нарушении «Закона о Роботах» (робот никогда не поднимет руки на человека), что, в принципе, невозможно. Ситуация близка к катастрофической: если машины могут нарушать этот закон, то уже ничто не остановит их от захвата контроля над людьми, тем более, что человечество уже давно стало полностью зависимо от роботов…- -Качество видео: BDRip 1080p
Контейнер: MKV
Формат 3D: Горизонтальная анаморфная стереопара / Half SideBySide
Порядок ракурсов: левый ракурс первый
Видео кодек: H.264
Аудио кодек: AC3
Видео: AVC, 1920x1080 (16:9), 23.976 fps, 19.2 Mbps (0.386 bit/pixel)
Аудио: Russian: AC-3, 48.0 KHz, 6 ch, 640 Kbps, CBR (дубляж)
Аудио #2: English: AC-3, 48.0 KHz, 6 ch, 640 Kbps, CBR (оригинал)
Cубтитры: русские, английские

Media Info

Общее
Уникальный идентификатор : 227492068347589540769207800475069187995 (0xAB2560EF79FA5ACB89752664AE8C079B)
Полное имя : G:\I.Robot.2004.3D.BDRip1080p.{HalfSideBySide}[pirat.ca].mkv
Формат : Matroska
Версия формата : Version 2
Размер файла : 16,7 Гбайт
Продолжительность : 1 ч. 54 м.
Общий поток : 20,9 Мбит/сек
Название фильма : I, Robot 3D 2004 {Alex Proyas} [pirat.ca]
Дата кодирования : UTC 2013-02-01 07:28:31
Программа кодирования : mkvmerge v5.8.0 ('No Sleep / Pillow') built on Sep 2 2012 15:37:04
Библиотека кодирования : libebml v1.2.3 + libmatroska v1.3.0
Видео
Идентификатор : 1
Формат : AVC
Формат/Информация : Advanced Video Codec
Профиль формата : [email protected]
Параметр CABAC формата : Да
Параметр ReFrames формата : 4 кадра
Идентификатор кодека : V_MPEG4/ISO/AVC
Продолжительность : 1 ч. 54 м.
Битрейт : 19,2 Мбит/сек
Ширина : 1920 пикселей
Высота : 1080 пикселей
Соотношение сторон : 16:9
Режим частоты кадров : Постоянный
Частота кадров : 23,976 кадра/сек
Цветовое пространство : YUV
Субдискретизация насыщенности : 4:2:0
Битовая глубина : 8 бит
Тип развёртки : Прогрессивная
Бит/(Пиксели*Кадры) : 0.386
Размер потока : 15,4 Гбайт (92%)
Заголовок : I, Robot 3D [pirat.ca]
Библиотека кодирования : x264 core 128 r2216 198a7ea
Настройки программы : cabac=1 / ref=4 / deblock=1:-3:-3 / analyse=0x3:0x113 / me=umh / subme=9 / psy=1 / psy_rd=1.00:0.15 / mixed_ref=1 / me_range=16 / chroma_me=1 / trellis=2 / 8x8dct=1 / cqm=0 / deadzone=21,11 / fast_pskip=1 / chroma_qp_offset=-3 / threads=3 / lookahead_threads=1 / sliced_threads=0 / slices=4 / nr=0 / decimate=1 / interlaced=0 / bluray_compat=0 / constrained_intra=0 / bframes=6 / b_pyramid=2 / b_adapt=2 / b_bias=0 / direct=3 / weightb=1 / open_gop=0 / weightp=2 / keyint=240 / keyint_min=23 / scenecut=40 / intra_refresh=0 / rc_lookahead=60 / rc=crf / mbtree=1 / crf=17.0 / qcomp=0.70 / qpmin=0 / qpmax=69 / qpstep=4 / vbv_maxrate=40000 / vbv_bufsize=40000 / crf_max=0.0 / nal_hrd=none / frame-packing=3 / ip_ratio=1.40 / aq=1:0.70
Язык : English
Default : Да
Forced : Нет
Аудио #1
Идентификатор : 2
Формат : AC-3
Формат/Информация : Audio Coding 3
Расширение режима : CM (complete main)
Параметр Endianness формата : Big
Идентификатор кодека : A_AC3
Продолжительность : 1 ч. 54 м.
Вид битрейта : Постоянный
Битрейт : 640 Кбит/сек
Каналы : 6 каналов
Расположение каналов : Front: L C R, Side: L R, LFE
Частота : 48,0 КГц
Битовая глубина : 16 бит
Метод сжатия : С потерями
Размер потока : 525 Мбайт (3%)
Заголовок : AC3 / 5.1 ch / 640 Kbps / (Дубляж)
Язык : Russian
Default : Да
Forced : Нет
Аудио #2
Идентификатор : 3
Формат : AC-3
Формат/Информация : Audio Coding 3
Расширение режима : CM (complete main)
Параметр Endianness формата : Big
Идентификатор кодека : A_AC3
Продолжительность : 1 ч. 54 м.
Вид битрейта : Постоянный
Битрейт : 640 Кбит/сек
Каналы : 6 каналов
Расположение каналов : Front: L C R, Side: L R, LFE
Частота : 48,0 КГц
Битовая глубина : 16 бит
Метод сжатия : С потерями
Размер потока : 525 Мбайт (3%)
Заголовок : AC3 / 5.1 ch / 640 Kbps / (Original)
Язык : English
Default : Нет
Forced : Нет
Текст #1
Идентификатор : 4
Формат : UTF-8
Идентификатор кодека : S_TEXT/UTF8
Идентификатор кодека/Информация : UTF-8 Plain Text
Язык : Russian
Default : Нет
Forced : Нет
Текст #2
Идентификатор : 5
Формат : UTF-8
Идентификатор кодека : S_TEXT/UTF8
Идентификатор кодека/Информация : UTF-8 Plain Text
Язык : English
Default : Нет
Forced : Нет
Меню
00:00:00.000 : :Chapter 01
00:01:46.940 : :Chapter 02
00:03:30.251 : :Chapter 03
00:06:18.544 : :Chapter 04
00:07:57.518 : :Chapter 05
00:10:19.702 : :Chapter 06
00:12:11.230 : :Chapter 07
00:15:35.309 : :Chapter 08
00:17:47.983 : :Chapter 09
00:22:51.870 : :Chapter 10
00:26:14.030 : :Chapter 11
00:26:59.242 : :Chapter 12
00:33:23.167 : :Chapter 13
00:36:03.578 : :Chapter 14
00:41:23.522 : :Chapter 15
00:46:07.890 : :Chapter 16
00:49:06.026 : :Chapter 17
00:52:14.506 : :Chapter 18
00:55:22.277 : :Chapter 19
00:58:31.716 : :Chapter 20
01:00:06.769 : :Chapter 21
01:01:08.665 : :Chapter 22
01:07:56.113 : :Chapter 23
01:08:18.094 : :Chapter 24
01:10:24.303 : :Chapter 25
01:13:17.226 : :Chapter 26
01:16:53.817 : :Chapter 27
01:18:39.464 : :Chapter 28
01:20:14.226 : :Chapter 29
01:21:18.290 : :Chapter 30
01:21:57.454 : :Chapter 31
01:27:29.535 : :Chapter 32
01:28:57.665 : :Chapter 33
01:32:59.657 : :Chapter 34
01:34:45.137 : :Chapter 35
01:38:09.466 : :Chapter 36
01:41:10.898 : :Chapter 37
01:44:15.415 : :Chapter 38
01:45:02.754 : :Chapter 39

Скриншоты

-Проверено на оборудовании:
3D медиаплеер: iconBIT XDS73D
3D телевизор: 3D LED-Телевизор 40" Samsung UE40 ES6850M
Яндекс.Метрика
Рейтинг@Mail.ru