Универсальный солдат 4 3D / Universal Soldier: Day of Reckoning 3D (Джон Хайамс / John Hyams) [2012 г., фантастика, боевик, BDRip 1080p] [Полная вертикальная стереопара / Full OverUnder] Dub + Original (Eng)

 

Создавать темы 05-Янв-2014 17:59

-Универсальный солдат 4
Universal Soldier: Day of Reckoning
«Under their own command»
-- Производство: США / Baumgarten Management, Foresight Unlimited, Signature Pictures
Год выпуска: 2012 г.
Жанр: фантастика, боевик
Продолжительность: 01:53:37
Мировая премьера: 23 августа 2012
Российская премьера: 4 октября 2012, «Люксор»
Дата выхода DVD: 5 ноября 2012, «Новый Диск»
Перевод: Профессиональный (полное дублирование)
Оригинальный аудиопоток: английский
Режиссер: Джон Хайамс / John Hyams-В ролях: Жан-Клод Ван Дамм, Скотт Эдкинс, Андрей Арловский, Дольф Лундгрен, Кристофер Ван Варенберг, Джеймс Роулингс, Дэвид Дженсен, Мария Боннер, Рас Блэквелл, Остин Нолти-Описание: Настоящее время. Программа «Unisol» по-прежнему актуальна и снова введена в эксплуатацию. Давним и непримиримым врагам времён Вьетнамской войны Эндрю Скотту и Люку Деверо суждено встретиться в очередной раз, дабы продолжить своё извечное противостояние и нескончаемую борьбу. Однако, новые опасности и трудности заставляют двух солдат на время объединиться пред лицом общей неприятности, что весьма ненадолго. Ясно одно: кровавый исход и брутальный финал неизбежен…- -Формат 3D: Вертикальная стереопара / OverUnder
Порядок ракурсов: левый ракурс первый
Качество видео: BDRip 1080p
Формат видео: MKV
Видео кодек: H.264
Аудио кодек: AC3
Видео: AVC, 1920x1632 (1.176), 23.976 fps, 15.8 Mbps (0.210 bit/pixel)
Аудио: Russian: AC-3, 48.0 KHz, 6 ch, 448 Kbps, CBR (дубляж)
Аудио #2: English: AC-3, 48.0 KHz, 6 ch, 640 Kbps, CBR (оригинал)
Cубтитры: отсутствуют

Media Info

Общее
Уникальный идентификатор : 247661170765755079630353487662750968083 (0xBA51CE75BBE146DEACF832F949392913)
Полное имя : G:\Universal Soldier Day of Reckoning_3D.BDRip.1080p{OverUnder}[pirat.ca].mkv
Формат : Matroska
Версия формата : Version 2
Размер файла : 13,6 Гбайт
Продолжительность : 1 ч. 53 м.
Общий поток : 17,2 Мбит/сек
Название фильма : Universal Soldier: Day of Reckoning {John Hyams} [pirat.ca]
Дата кодирования : UTC 2013-01-31 04:52:29
Программа кодирования : mkvmerge v5.8.0 ('No Sleep / Pillow') built on Sep 2 2012 15:37:04
Библиотека кодирования : libebml v1.2.3 + libmatroska v1.3.0
Видео
Идентификатор : 1
Формат : AVC
Формат/Информация : Advanced Video Codec
Профиль формата : [email protected]
Параметр CABAC формата : Да
Параметр ReFrames формата : 4 кадра
Идентификатор кодека : V_MPEG4/ISO/AVC
Продолжительность : 1 ч. 53 м.
Битрейт : 15,8 Мбит/сек
Ширина : 1920 пикселей
Высота : 1632 пикселя
Соотношение сторон : 1,176
Режим частоты кадров : Постоянный
Частота кадров : 23,976 кадра/сек
Цветовое пространство : YUV
Субдискретизация насыщенности : 4:2:0
Битовая глубина : 8 бит
Тип развёртки : Прогрессивная
Бит/(Пиксели*Кадры) : 0.210
Размер потока : 12,5 Гбайт (92%)
Заголовок : Universal Soldier: Day of Reckoning {John Hyams} [pirat.ca]
Библиотека кодирования : x264 core 128 r2216kMod 198a7ea
Настройки программы : cabac=1 / ref=4 / deblock=1:-3:-3 / analyse=0x3:0x113 / me=umh / subme=9 / psy=1 / fade_compensate=0.00 / psy_rd=1.00:0.15 / mixed_ref=1 / me_range=16 / chroma_me=1 / trellis=2 / 8x8dct=1 / cqm=0 / deadzone=21,11 / fast_pskip=1 / chroma_qp_offset=-3 / threads=6 / lookahead_threads=1 / sliced_threads=0 / nr=0 / decimate=1 / interlaced=0 / bluray_compat=0 / constrained_intra=0 / bframes=6 / b_pyramid=2 / b_adapt=2 / b_bias=0 / direct=3 / weightb=1 / open_gop=0 / weightp=2 / keyint=250 / keyint_min=23 / scenecut=40 / intra_refresh=0 / rc_lookahead=60 / rc=crf / mbtree=1 / crf=18.0000 / qcomp=0.60 / qpmin=10 / qpmax=69 / qpstep=4 / vbv_maxrate=40000 / vbv_bufsize=40000 / crf_max=0.0 / nal_hrd=none / ip_ratio=1.40 / aq=1:1.00
Язык : English
Default : Да
Forced : Нет
Аудио #1
Идентификатор : 2
Формат : AC-3
Формат/Информация : Audio Coding 3
Расширение режима : CM (complete main)
Параметр Endianness формата : Big
Идентификатор кодека : A_AC3
Продолжительность : 1 ч. 53 м.
Вид битрейта : Постоянный
Битрейт : 448 Кбит/сек
Каналы : 6 каналов
Расположение каналов : Front: L C R, Side: L R, LFE
Частота : 48,0 КГц
Битовая глубина : 16 бит
Метод сжатия : С потерями
Размер потока : 364 Мбайт (3%)
Заголовок : дубляж
Язык : Russian
Default : Да
Forced : Нет
Аудио #2
Идентификатор : 3
Формат : AC-3
Формат/Информация : Audio Coding 3
Расширение режима : CM (complete main)
Параметр Endianness формата : Big
Идентификатор кодека : A_AC3
Продолжительность : 1 ч. 53 м.
Вид битрейта : Постоянный
Битрейт : 640 Кбит/сек
Каналы : 6 каналов
Расположение каналов : Front: L C R, Side: L R, LFE
Частота : 48,0 КГц
Битовая глубина : 16 бит
Метод сжатия : С потерями
Размер потока : 520 Мбайт (4%)
Заголовок : оригинал
Язык : English
Default : Нет
Forced : Нет

Скриншоты

ВНИМАНИЕ !
На встроенных ТВ-плейерах работать не будет!!!
Железные плееры на которых воспроизводятся полные стереопары: Popcorn C-200, Dune HD Smart D1, Dune HD DUO, Dune HD Smart H1, Dune HD Smart B1, Dune HD Max.

-

Создавать темы 29-Мар-2014 22:05 (спустя 2 месяца 24 дня)

Спасибо!!! Обажаю Эдкинса...
Яндекс.Метрика
Рейтинг@Mail.ru