Тарзан. Легенда / The Legend of Tarzan (2016) WEB-DL [H.264/720p-LQ]

 

Создавать темы 21-Сен-2016 06:46

- Тарзан. Легенда / The Legend of Tarzan (2016) WEB-DL [H.264/720p-LQ] - Производство: США / Dark Horse Entertainment, Jerry Weintraub Productions
Жанр: Боевик, Приключения
Режиссер: Дэвид Йэтс
Продюсер: Дэвид Баррон, Брюс Берман, Scott Cherrin
Актеры: Александр Скашгод, Марго Робби, Кристоф Вальц, Сэмюэль Л. Джексон, Джимон Хонсу, Джон Херт, Саймон Расселл Бил, Элла Пернелл
Описание:
Приспособившийся к жизни в Лондоне Тарзан возвращается в свой бывший дом, в джунгли, чтобы разобраться в том, что происходит в лагере горнодобывающей компании.-Возраст: 12+ (зрителям, достигшим 12 лет)
Рейтинг MPAA: PG-13 (детям до 13 лет просмотр нежелателен)
Дата мировой премьеры: 30 июня 2016
Дата премьеры в России: 30 июня 2016, «Каро-Премьер»

Дата выхода DVD/Blu-ray релиза: 30 сентября 2016
Продолжительность: 01:49:57
Качество видео: WEB-DL
Перевод: Дублированный (iTunes)
Вид субтитров: Вшитые отключаемые
Язык субтитров: русский, английский
Видео: AVC/H.264, 1280x532 , ~3809 Kbps
Аудио #1: AC-3, 48.0 KHz, 6 ch, 384 Kbps | Русский
Аудио #2: AC-3, 48.0 KHz, 6 ch, 384 Kbps | Английский

MediaInfo

Общее
Уникальный идентификатор                 : 207809088545616647018726784965998921685 (0x9C56931B40818B88A6774D5029DDC7D5)
Полное имя                               : F:\The.Legend.of.Tarzan.2016.720p.WEB-DL.NNM-CLUB.mkv
Формат                                   : Matroska
Версия формата                           : Version 4 / Version 2
Размер файла                             : 3,59 Гбайт
Продолжительность                        : 1 ч. 49 м.
Общий поток                              : 4670 Кбит/сек
Название фильма                          : The Legend of Tarzan (2016) - Release for HDCLUB
Дата кодирования                         : UTC 2016-09-20 22:07:23
Программа кодирования                    : mkvmerge v8.3.0 ('Over the Horizon') 64bit
Библиотека кодирования                   : libebml v1.3.1 + libmatroska v1.4.2
DURATION                                 : 01:49:56.757000000
NUMBER_OF_FRAMES                         : 158164
NUMBER_OF_BYTES                          : 3215768333
_STATISTICS_WRITING_APP                  : mkvmerge v8.3.0 ('Over the Horizon') 64bit
_STATISTICS_WRITING_DATE_UTC             : 2016-09-20 22:07:23
_STATISTICS_TAGS                         : BPS DURATION NUMBER_OF_FRAMES NUMBER_OF_BYTES
Видео
Идентификатор                            : 1
Формат                                   : AVC
Формат/Информация                        : Advanced Video Codec
Профиль формата                          : [url=mailto:[email protected]][email protected][/url]
Параметр CABAC формата                   : Да
Параметр ReFrames формата                : 12 кадров
Идентификатор кодека                     : V_MPEG4/ISO/AVC
Продолжительность                        : 1 ч. 49 м.
Битрейт                                  : 3809 Кбит/сек
Ширина                                   : 1280 пикселей
Высота                                   : 532 пикселя
Соотношение сторон                       : 2,40:1
Режим частоты кадров                     : Постоянный
Частота кадров                           : 23,976 кадра/сек
Цветовое пространство                    : YUV
Субдискретизация насыщенности            : 4:2:0
Битовая глубина                          : 8 бит
Тип развёртки                            : Прогрессивная
Бит/(Пиксели*Кадры)                      : 0.233
Размер потока                            : 2,93 Гбайт (82%)
Default                                  : Да
Forced                                   : Нет
Аудио #1
Идентификатор                            : 2
Формат                                   : AC-3
Формат/Информация                        : Audio Coding 3
Расширение режима                        : CM (complete main)
Параметр Endianness формата              : Big
Идентификатор кодека                     : A_AC3
Продолжительность                        : 1 ч. 49 м.
Вид битрейта                             : Постоянный
Битрейт                                  : 384 Кбит/сек
Каналы                                   : 6 каналов
Расположение каналов                     : Front: L C R, Side: L R, LFE
Частота                                  : 48,0 КГц
Битовая глубина                          : 16 бит
Метод сжатия                             : С потерями
Размер потока                            : 302 Мбайт (8%)
Заголовок                                : AC3 5.1 @ 384 kbps - DUB, iTunes
Язык                                     : Russian
Default                                  : Да
Forced                                   : Нет
Аудио #2
Идентификатор                            : 3
Формат                                   : AC-3
Формат/Информация                        : Audio Coding 3
Расширение режима                        : CM (complete main)
Параметр Endianness формата              : Big
Идентификатор кодека                     : A_AC3
Продолжительность                        : 1 ч. 49 м.
Вид битрейта                             : Постоянный
Битрейт                                  : 384 Кбит/сек
Каналы                                   : 6 каналов
Расположение каналов                     : Front: L C R, Side: L R, LFE
Частота                                  : 48,0 КГц
Битовая глубина                          : 16 бит
Метод сжатия                             : С потерями
Размер потока                            : 302 Мбайт (8%)
Заголовок                                : AC3 5.1 @ 384 kbps
Язык                                     : English
Default                                  : Нет
Forced                                   : Нет
Текст #1
Идентификатор                            : 4
Формат                                   : UTF-8
Идентификатор кодека                     : S_TEXT/UTF8
Идентификатор кодека/Информация          : UTF-8 Plain Text
Заголовок                                : Forced, iTunes
Язык                                     : Russian
Default                                  : Да
Forced                                   : Нет
Текст #2
Идентификатор                            : 5
Формат                                   : UTF-8
Идентификатор кодека                     : S_TEXT/UTF8
Идентификатор кодека/Информация          : UTF-8 Plain Text
Заголовок                                : iTunes
Язык                                     : Russian
Default                                  : Нет
Forced                                   : Нет
Текст #3
Идентификатор                            : 6
Формат                                   : UTF-8
Идентификатор кодека                     : S_TEXT/UTF8
Идентификатор кодека/Информация          : UTF-8 Plain Text
Заголовок                                : SDH
Язык                                     : English
Default                                  : Нет
Forced                                   : Нет
Меню
00:00:00.000                             : en:1
00:10:56.000                             : en:2
00:20:47.000                             : en:3
00:28:26.000                             : en:4
00:40:49.000                             : en:5
00:51:03.000                             : en:6
01:01:15.000                             : en:7
01:10:22.000                             : en:8
01:20:58.000                             : en:9
01:29:09.000                             : en:10
01:42:05.000                             : en:11
Скриншоты:
Яндекс.Метрика
Рейтинг@Mail.ru