Сын Зорна / Son of Zorn / Сезон: 1 / Серии: 1-1 (7) (Эрик Аппель / Eric Appel) [2016 г., мультфильм, комедия, WEB-DLRip, 720p] DVO (Кубик в Кубе) + Original (Eng) + Sub (Eng) [Обновляемая]

 

Создавать темы 21-Сен-2016 03:19

-Сын Зорна / Son of Zorn
«Sword Envy»
(1 сезон)
-- Производство: США
Жанр: мультфильм, комедия
Год выпуска: 2016 г.
Продолжительность: 1x ~00:22:00Перевод: Профессиональный (двухголосый, закадровый) [Кубик в Кубе]
Оригинальный аудиопоток: английскийРежиссер: Эрик Аппель / Eric Appel-В ролях: Джонни Пембертон (Alan), Шерил Хайнс (Edie), Тим Медоуз (Craig), Артемис Пебдани (Linda), Джейсон Судейкис (Zorn), Скотт Бинер (Tom), Боб Рамнок (Yard sale customer), Giorgia Whigham (Shannon), Джордан Боргес (Sanitation Solutions Salesman), Николь Шове (Sanitation Solutions Worker), Дебора С. Крэйг (Vickie), Кристофер Герман (Larry)-Описание: Два мира столкнутся в курьезных буднях между фантастической и нашей реальностью, после десяти лет отсутствия, Зорн возвращается, как повелитель, воин и защитник, все это время он утолял свой боевой дух в войнах и приключениях, привыкший к грубости и необузданности адреналина. Всегда отличавшийся от своей семьи, но теперь настало время вернуться в ее пенаты, однако здесь на Земле сложно о своих подвигах рассказывать людям, которые смотрят с удивлением и недоумением на варвара с мечом за спиной, ведь они жили простой американской и тихой жизнью, которую ведут все обыватели планеты. Но мужчине предстоит столкнуться с массой проблем, к которым он оказался не готов, бесстрашный и кровожадный на поле боя, он оторопел, когда на него свалился быт двадцать первого века. Там, где он побывал, о феминизме и вегетарианстве никто не знал, а начальник в юбке - это вообще что-то из рода вон выходящее. А еще у его бывшей жены, оказалось, есть ухажер, который станет врагом номер один у Зорна, но его главная задача - не покорить соседей или коллег на новой работе, а добиться расположения сына, которого он не видел столько лет.- -Качество видео: WEB-DLRip
Контейнер: MKV
Стандарт разрешения: 720p
Видео кодек: H.264/AVC
Аудио кодек: AC3
Видео: 1280x720 (16:9), 23,976 fps, ~2200 kbps avg
Аудио: Russian: 48 kHz, AC3, 3/2 (L,C,R,l,r) + LFE ch, ~640.00.00 kbps avg |Двухголосый закадровый, Кубик в Кубе|
Аудио #2: English: 48 kHz, AC3, 3/2 (L,C,R,l,r) + LFE ch, ~640.00.00 kbps avgCубтитры: английские

Список серий

01: Return to Orange County / Возвращение в округ Оранж

Media Info

Код:
Format                      : Matroska
Format version              : Version 4 / Version 2
File size                   : 563 MiB
Duration                    : 22mn 33s
Overall bit rate mode       : Variable
Overall bit rate            : 3 486 Kbps
Movie name                  : Son of Zorn 01x01 (Return to Orange County)
Encoded date                : UTC 2016-09-15 22:45:58
Writing application         : mkvmerge v6.7.0 ('Back to the Ground') 64bit built on Jan  8 2014 15:10:52
Writing library             : libebml v1.3.0 + libmatroska v1.4.1Video
ID                          : 1
Format                      : AVC
Format/Info                 : Advanced Video Codec
Format profile              : [email protected]/*  */
Format settings, CABAC      : Yes
Format settings, ReFrames   : 5 frames
Codec ID                    : V_MPEG4/ISO/AVC
Duration                    : 22mn 33s
Bit rate mode               : Variable
Bit rate                    : 2 137 Kbps
Maximum bit rate            : 4 500 Kbps
Width                       : 1 280 pixels
Height                      : 720 pixels
Display aspect ratio        : 16:9
Frame rate mode             : Constant
Frame rate                  : 23.976 fps
Color space                 : YUV
Chroma subsampling          : 4:2:0
Bit depth                   : 8 bits
Scan type                   : Progressive
Bits/(Pixel*Frame)          : 0.097
Stream size                 : 345 MiB (61%)
Title                       : Son.of.Zorn.S01E01.Return.to.Orange.County.720p.AMZN.WEBRip
Language                    : English
Default                     : Yes
Forced                      : No
Color primaries             : BT.709
Transfer characteristics    : BT.709
Matrix coefficients         : BT.709
Color range                 : LimitedAudio #1
ID                          : 2
Format                      : AC-3
Format/Info                 : Audio Coding 3
Mode extension              : CM (complete main)
Format settings, Endianness : Big
Codec ID                    : A_AC3
Duration                    : 22mn 33s
Bit rate mode               : Constant
Bit rate                    : 640 Kbps
Channel(s)                  : 6 channels
Channel positions           : Front: L C R, Side: L R, LFE
Sampling rate               : 48.0 KHz
Bit depth                   : 16 bits
Compression mode            : Lossy
Stream size                 : 103 MiB (18%)
Title                       : KvK DD5.1 @ 640kbps
Language                    : Russian
Default                     : Yes
Forced                      : NoAudio #2
ID                          : 3
Format                      : AC-3
Format/Info                 : Audio Coding 3
Mode extension              : CM (complete main)
Format settings, Endianness : Big
Codec ID                    : A_AC3
Duration                    : 22mn 33s
Bit rate mode               : Constant
Bit rate                    : 640 Kbps
Channel(s)                  : 6 channels
Channel positions           : Front: L C R, Side: L R, LFE
Sampling rate               : 48.0 KHz
Bit depth                   : 16 bits
Compression mode            : Lossy
Stream size                 : 103 MiB (18%)
Title                       : English DD5.1 @ 640kbps
Language                    : English
Default                     : No
Forced                      : NoText
ID                          : 4
Format                      : UTF-8
Codec ID                    : S_TEXT/UTF8
Codec ID/Info               : UTF-8 Plain Text
Title                       : Eng sub
Language                    : English
Default                     : No
Forced                      : No

Скриншот c названием фильма

Скриншоты

Яндекс.Метрика
Рейтинг@Mail.ru