Сотня / The Hundred / Сезон: 1 / Серии: 1-13 (13) (Дин Уайт / Dean White, Эд Фрэйман / Ed Fraiman, Милан Чейлов / Milan Cheylov, ...) [2014 г., фантастика, драма, детектив, BDRip, 720p] Dub (Кравец) + Original (Eng) + Sub (Eng)

 

Создавать темы 21-Сен-2016 02:57

-Сотня / The Hundred
«Survival isn't who you are. It's who you become»
(1 сезон)
-- Производство: США
Жанр: фантастика, драма, детектив
Год выпуска: 2014 г.
Продолжительность: 13x ~00:42:00Перевод: Профессиональный (полное дублирование) [Кравец]
Оригинальный аудиопоток: английскийРежиссер: Дин Уайт / Dean White, Эд Фрэйман / Ed Fraiman, Милан Чейлов / Milan Cheylov, ...-В ролях: Элиза Тейлор, Мари Авгеропулос, Сачин Сахель, Линдси Морган, Женевьев Бюкнер, Ричард Хэрмон, Джарод Джозеф, Челси Рейст, Крис Браунинг, Джош Ссеттуба-Описание: События в сериале начинают разворачиваться по прошествии девяносто семи лет после того как всю цивилизацию уничтожила страшная атомная война.
Высоко в космосе на орбите Земли летает большой космический корабль, именно здесь находятся те, кто выжил после страшной катастрофы. Они единственные кто пережил этот ужасный катаклизм который устроило человечество. Именно с этого последнего пристанища людей на Землю отправляют космический челнок на котором находятся сто малолетних преступников...- -Качество видео: BDRip
Контейнер: MKV
Стандарт разрешения: 720p
Видео кодек: H.264/AVC
Аудио кодек: AC3, DTS
Видео: 1280x720 at 23.976 fps, ~6500-10500 kbps avg
Аудио: Russian: 48 kHz/16-bit, AC3, 2.0 ch, ~192.00 kbps avg |Дубляж, студия "Кравец"|
Аудио #2: English: 48 kHz/16-bit, DTS 5.1, ~1509.00 kbps avgCубтитры: English, English SDH
Цитата:

• Дубляж не содержит озвучку «в предыдущих сериях».

Список серий

01. Пилот (Pilot)
02. Выжить на Земле (Earth Skills)
03. Умереть на Земле (Earth Kills)
04. Закон Мерфи (Murphy's Law)
05. Последний луч сумерек (Twilight's Last Gleaming)
06. Ради сестры (His Sister's Keeper)
07. Под давлением (Contents Under Pressure)
08. Однодневное путешествие (Day Trip)
09. День единства (Unity Day)
10. Я стал Смертью (I Am Become Death)
11. Тишина (The Calm)
12. Мы - земляне: часть 1 (We Are Grounders: Part 1)
13. Мы - земляне: часть 2 (We Are Grounders: Part 2)

Media Info

Код:
Format                      : Matroska
Format version              : Version 4 / Version 2
File size                   : 2.40 GiB
Duration                    : 41mn 16s
Overall bit rate            : 8 320 Kbps
Movie name                  : The 100 1x01
Encoded date                : UTC 2016-09-19 19:09:10
Writing application         : mkvmerge v6.0.0 ('Coming Up For Air') built on Jan 20 2013 09:52:00
Writing library             : libebml v1.3.0 + libmatroska v1.4.0Video
ID                          : 1
Format                      : AVC
Format/Info                 : Advanced Video Codec
Format profile              : [email protected]/*  */
Format settings, CABAC      : Yes
Format settings, ReFrames   : 9 frames
Codec ID                    : V_MPEG4/ISO/AVC
Duration                    : 41mn 16s
Bit rate                    : 6 453 Kbps
Width                       : 1 280 pixels
Height                      : 720 pixels
Display aspect ratio        : 16:9
Frame rate mode             : Constant
Frame rate                  : 23.976 fps
Color space                 : YUV
Chroma subsampling          : 4:2:0
Bit depth                   : 8 bits
Scan type                   : Progressive
Bits/(Pixel*Frame)          : 0.292
Stream size                 : 1.86 GiB (78%)
Title                       : The 100 1x01
Writing library             : x264 core 142 r2431+42 c69a006 tMod [[email protected]/*  */:2:0 X86]
Encoding settings           : cabac=1 / ref=9 / deblock=1:-3:-3 / analyse=0x3:0x113 / me=umh / subme=10 / psy=1 / fade_compensate=0.00 / psy_rd=1.05:0.00 / mixed_ref=1 / me_range=32 / chroma_me=1 / trellis=2 / 8x8dct=1 / cqm=0 / deadzone=21,11 / fast_pskip=0 / chroma_qp_offset=-2 / threads=6 / lookahead_threads=1 / sliced_threads=0 / nr=0 / decimate=0 / interlaced=0 / bluray_compat=0 / constrained_intra=0 / fgo=0 / bframes=8 / b_pyramid=2 / b_adapt=2 / b_bias=0 / direct=3 / weightb=1 / open_gop=0 / weightp=2 / keyint=250 / keyint_min=23 / scenecut=40 / intra_refresh=0 / rc_lookahead=60 / rc=crf / mbtree=0 / crf=18.0000 / qcomp=0.65 / qpmin=0:0:0 / qpmax=69:69:69 / qpstep=4 / vbv_maxrate=50000 / vbv_bufsize=62500 / crf_max=0.0 / nal_hrd=none / filler=0 / ip_ratio=1.20 / pb_ratio=1.10 / aq=4:0.80 / aq-sensitivity=10.00 / aq-factor=1.00:1.00:1.00 / aq2=0 / aq3=0
Language                    : English
Default                     : Yes
Forced                      : NoAudio #1
ID                          : 2
Format                      : AC-3
Format/Info                 : Audio Coding 3
Mode extension              : CM (complete main)
Format settings, Endianness : Big
Codec ID                    : A_AC3
Duration                    : 41mn 16s
Bit rate mode               : Constant
Bit rate                    : 192 Kbps
Channel(s)                  : 2 channels
Channel positions           : Front: L R
Sampling rate               : 48.0 KHz
Bit depth                   : 16 bits
Compression mode            : Lossy
Stream size                 : 56.7 MiB (2%)
Title                       : DUB Kravec
Language                    : Russian
Default                     : Yes
Forced                      : NoAudio #2
ID                          : 3
Format                      : DTS
Format/Info                 : Digital Theater Systems
Mode                        : 16
Format settings, Endianness : Big
Codec ID                    : A_DTS
Duration                    : 41mn 16s
Bit rate mode               : Constant
Bit rate                    : 1 509 Kbps
Channel(s)                  : 6 channels
Channel positions           : Front: L C R, Side: L R, LFE
Sampling rate               : 48.0 KHz
Bit depth                   : 16 bits
Compression mode            : Lossy
Stream size                 : 445 MiB (18%)
Title                       : English
Language                    : English
Default                     : No
Forced                      : NoText #1
ID                          : 4
Format                      : UTF-8
Codec ID                    : S_TEXT/UTF8
Codec ID/Info               : UTF-8 Plain Text
Title                       : Eng-Sub
Language                    : English
Default                     : No
Forced                      : NoText #2
ID                          : 5
Format                      : UTF-8
Codec ID                    : S_TEXT/UTF8
Codec ID/Info               : UTF-8 Plain Text
Title                       : Eng-Sub (SDH)
Language                    : English
Default                     : No
Forced                      : NoMenu
00:00:00.000                : en:00:00:00.000
00:02:42.662                : en:00:02:42.662
00:10:09.108                : en:00:10:09.108
00:17:47.316                : en:00:17:47.316
00:24:33.180                : en:00:24:33.180
00:30:12.477                : en:00:30:12.477
00:35:34.090                : en:00:35:34.090
00:40:47.070                : en:00:40:47.070

Скриншот c названием фильма

Скриншоты

Яндекс.Метрика
Рейтинг@Mail.ru