Тупой и еще тупее / Dumb & Dumber [Расширенная версия / Unrated] (Питер Фарелли / Peter Farrelly) [1994 г., комедия, BDRip] AVO (2xА.Гаврилов, Ю.Сербин, С.Визгунов, А.Кашкин, В.Махонько) + VO (диктор CDV, Е.Бойков)

 

Создавать темы 05-Янв-2014 17:30

Тупой и еще тупее / Dumb & Dumber [Расширенная версия / Unrated]
Год выпуска: 1994
Производство: США
Жанр: комедия
Продолжительность: 01:52:49
Перевод: Авторский (одноголосый, закадровый) А.Гаврилов (ранний)
Перевод 2: Авторский (одноголосый, закадровый) А.Гаврилов (поздний)
Перевод 3: Авторский (одноголосый, закадровый) Ю.Сербин
Перевод 4: Авторский (одноголосый, закадровый) С.Визгунов
Перевод 5: Авторский (одноголосый, закадровый) А.Кашкин
Перевод 6: Авторский (одноголосый, закадровый) В.Махонько
Перевод 7: Профессиональный (одноголосый, закадровый) диктор CDV
Перевод 8: Профессиональный (одноголосый, закадровый) Е.Бойков
Субтитры: отсутствуют
Режиссер: Питер Фарелли / Peter Farrelly
В ролях: Джим Керри, Джефф Дэниелс, Лорен Холли, Майк Старр, Карен Даффи, Чарльз Роккет, Виктория Роуэлл, Джо Бэйкер, Хэнк Брандт, Тери Гарр
Описание: Два полных придурка, Ллойд Крисмас и Харри Данн пытаются нагнать красивую девушку Мэри Суонсон, чтобы вручить ей потерянный ею чемоданчик-дипломат. Кретинам невдомек, что Мэри обронила его специально, в качестве выкупа по договоренности с бандитами, похитившими ее мужа.
Ведь внутри лежит кругленькая сумма. На мохнатой машине уникальной марки «Овчарка» двое идиотов пересекают Америку от Род-Айленда до Колорадо, где и находят обворожительную Мэри, в которую Ллойд уже успел втюриться без памяти.
,
Качество видео: BDRip
Контейнер: AVI
Видео кодек: XviD
Аудио кодек: AC3
Видео: 720x400 (1.80:1), 23.976 fps, XviD build 50 ~1645 Kbps, 0.33 bit/pixel
Аудио : 48 kHz, AC3 Dolby Digital, 3/2 (L,C,R,l,r) + LFE ch, ~448 kbps - А.Гаврилов (ранний)
Аудио #2: 48 kHz, AC3 Dolby Digital, 3/2 (L,C,R,l,r) + LFE ch, ~448 kbps - А.Гаврилов (поздний)
Аудио #3: 48 kHz, AC3 Dolby Digital, 3/2 (L,C,R,l,r) + LFE ch, ~448 kbps - Ю.Сербин
Аудио #4: 48 kHz, AC3 Dolby Digital, 2/0 (L,R) ch, ~192 kbps - С.Визгунов
Аудио #5: 48 kHz, AC3 Dolby Digital, 2/0 (L,R) ch, ~192 kbps - А.Кашкин
Аудио #6: 48 kHz, AC3 Dolby Digital, 2/0 (L,R) ch, ~192 kbps - В.Махонько
Аудио #7: 48 kHz, AC3 Dolby Digital, 2/0 (L,R) ch, ~192 kbps - диктор CDV
Аудио #8: 48 kHz, AC3 Dolby Digital, 2/0 (L,R) ch, ~192 kbps - Е.Бойков

Доп. информация

Дороги взяты с hdclub.
цитата:
Перевод Юрия Сербина выкуплен благодаря: DaviD18_85, Dervish, tide, Ramis, DB73, carnivale, dr_akula, Slimka, 8bitman, dir, uchitel538, Bilko.
Перевод Андрея Гаврилова (поздний) выкуплен благодаря: foxlight, DB73, dr_akula, oleg-k, olegsoleg, LAVR, SavineX78, uchitel538, пуля, Nadoelo, Kastro, Iceman, sawyer4, Guyver, denis_mgn_1987, karantin66б User, vavana, фёдор александрович, Марлон, axl-dr.
За исходники авторских озвучек Махонько, Кашкина, Бойкова и диктора CDV спасибо Фэтти, Партизан, videolover, duckling.
Все озвучки, кроме Гланца и позднего перевода Гаврилова подогнаны от театральной версии и содержат вставки с дорог 5-7 в расширенных фрагментах.

Media Info

General
Complete name : D:\Films 2\Dumb & Dumber.1994 BDRip.avi
Format : AVI
Format/Info : Audio Video Interleave
Format profile : OpenDML
File size : 3.15 GiB
Duration : 1h 52mn
Overall bit rate : 3 995 Kbps
Writing application : VirtualDubMod 1.5.10.3 (build 2550/release)
Video
ID : 0
Format : MPEG-4 Visual
Format profile : Advanced [email protected]
Format settings, BVOP : 1
Format settings, QPel : No
Format settings, GMC : No warppoints
Format settings, Matrix : Custom
Codec ID : XVID
Codec ID/Hint : XviD
Duration : 1h 52mn
Bit rate : 1 645 Kbps
Width : 720 pixels
Height : 400 pixels
Display aspect ratio : 16:9
Frame rate : 23.976 fps
Color space : YUV
Chroma subsampling : 4:2:0
Bit depth : 8 bits
Scan type : Progressive
Compression mode : Lossy
Bits/(Pixel*Frame) : 0.238
Stream size : 1.30 GiB (41%)
Writing library : XviD 1.2.1 (UTC 2008-12-04)
Audio #1
ID : 1
Format : AC-3
Format/Info : Audio Coding 3
Mode extension : CM (complete main)
Format settings, Endianness : Big
Codec ID : 2000
Duration : 1h 52mn
Bit rate mode : Constant
Bit rate : 448 Kbps
Channel count : 6 channels
Channel positions : Front: L C R, Side: L R, LFE
Sampling rate : 48.0 KHz
Bit depth : 16 bits
Compression mode : Lossy
Stream size : 362 MiB (11%)
Alignment : Split accross interleaves
Interleave, duration : 42 ms (1.00 video frame)
Interleave, preload duration : 500 ms
Audio #2
ID : 2
Format : AC-3
Format/Info : Audio Coding 3
Mode extension : CM (complete main)
Format settings, Endianness : Big
Codec ID : 2000
Duration : 1h 52mn
Bit rate mode : Constant
Bit rate : 448 Kbps
Channel count : 6 channels
Channel positions : Front: L C R, Side: L R, LFE
Sampling rate : 48.0 KHz
Bit depth : 16 bits
Compression mode : Lossy
Stream size : 362 MiB (11%)
Alignment : Split accross interleaves
Interleave, duration : 42 ms (1.00 video frame)
Interleave, preload duration : 500 ms
Audio #3
ID : 3
Format : AC-3
Format/Info : Audio Coding 3
Mode extension : CM (complete main)
Format settings, Endianness : Big
Codec ID : 2000
Duration : 1h 52mn
Bit rate mode : Constant
Bit rate : 448 Kbps
Channel count : 6 channels
Channel positions : Front: L C R, Side: L R, LFE
Sampling rate : 48.0 KHz
Bit depth : 16 bits
Compression mode : Lossy
Stream size : 362 MiB (11%)
Alignment : Split accross interleaves
Interleave, duration : 42 ms (1.00 video frame)
Interleave, preload duration : 500 ms
Audio #4
ID : 4
Format : AC-3
Format/Info : Audio Coding 3
Mode extension : CM (complete main)
Format settings, Endianness : Big
Codec ID : 2000
Duration : 1h 52mn
Bit rate mode : Constant
Bit rate : 192 Kbps
Channel count : 2 channels
Channel positions : Front: L R
Sampling rate : 48.0 KHz
Bit depth : 16 bits
Compression mode : Lossy
Stream size : 155 MiB (5%)
Alignment : Split accross interleaves
Interleave, duration : 42 ms (1.00 video frame)
Interleave, preload duration : 500 ms
Audio #5
ID : 5
Format : AC-3
Format/Info : Audio Coding 3
Mode extension : CM (complete main)
Format settings, Endianness : Big
Codec ID : 2000
Duration : 1h 52mn
Bit rate mode : Constant
Bit rate : 192 Kbps
Channel count : 2 channels
Channel positions : Front: L R
Sampling rate : 48.0 KHz
Bit depth : 16 bits
Compression mode : Lossy
Stream size : 155 MiB (5%)
Alignment : Split accross interleaves
Interleave, duration : 42 ms (1.00 video frame)
Interleave, preload duration : 500 ms
Audio #6
ID : 6
Format : AC-3
Format/Info : Audio Coding 3
Mode extension : CM (complete main)
Format settings, Endianness : Big
Codec ID : 2000
Duration : 1h 52mn
Bit rate mode : Constant
Bit rate : 192 Kbps
Channel count : 2 channels
Channel positions : Front: L R
Sampling rate : 48.0 KHz
Bit depth : 16 bits
Compression mode : Lossy
Stream size : 155 MiB (5%)
Alignment : Split accross interleaves
Interleave, duration : 42 ms (1.00 video frame)
Interleave, preload duration : 500 ms
Audio #7
ID : 7
Format : AC-3
Format/Info : Audio Coding 3
Mode extension : CM (complete main)
Format settings, Endianness : Big
Codec ID : 2000
Duration : 1h 52mn
Bit rate mode : Constant
Bit rate : 192 Kbps
Channel count : 2 channels
Channel positions : Front: L R
Sampling rate : 48.0 KHz
Bit depth : 16 bits
Compression mode : Lossy
Stream size : 155 MiB (5%)
Alignment : Split accross interleaves
Interleave, duration : 42 ms (1.00 video frame)
Interleave, preload duration : 500 ms
Audio #8
ID : 8
Format : AC-3
Format/Info : Audio Coding 3
Mode extension : CM (complete main)
Format settings, Endianness : Big
Codec ID : 2000
Duration : 1h 52mn
Bit rate mode : Constant
Bit rate : 192 Kbps
Channel count : 2 channels
Channel positions : Front: L R
Sampling rate : 48.0 KHz
Bit depth : 16 bits
Compression mode : Lossy
Stream size : 155 MiB (5%)
Alignment : Split accross interleaves
Interleave, duration : 42 ms (1.00 video frame)
Interleave, preload duration : 500 ms

Скриншоты

Яндекс.Метрика
Рейтинг@Mail.ru