Stand Up / Серии: 1-15 [2013 г., Юмористическое шоу, Stand up comedy, WEB-DL] [+ Original (Rus)]

 

Создавать темы 05-Янв-2014 17:15

- -- Производство:
Жанр: Юмористическое шоу, Stand up comedy
Год выпуска: 2013 г.
Продолжительность: 00:49:00
Перевод: Не требуется
Оригинальный аудиопоток: русский-В ролях: Руслан Белый, Слава Комиссаренко, Юлия Ахмедова, Дмитрий Романов, Стас Старовойтов, Тимур Каргинов, Виктор Комаров, Александр Шаляпин-Описание: Новое юмористическое шоу в жанре стендап. Здесь люди рассказывают о своих проблемах. Слава богу, что они у нас есть!-Качество видео: WEB-DL
Контейнер: MKV
Видео кодек: AVC
Аудио кодек: AC3
Видео: 768 x 432 (16:9) 1 115 Kbps 25.000 fps
Аудио: 192 Kbps 2 channels 44.1 KHz
Cубтитры: отсутствуют

Media Info

Stand Up Выпуск 01

Имя файла: Stand Up Выпуск 01.mkv
Формат файла: .mkv (Matroska)
Размер файла: 465.79 MB
Длительность: 48mn 49s
Навигация по главам: Нет
Битрейт (все потоки): 1 334 Kbps
Файл создан: UTC 2013-10-06 16:54:07
Создан при помощи: mkvmerge v6.1.0 ('Old Devil') built on Mar 4 2013 09:10:42
Использовалась библиотека: libebml v1.3.0 + libmatroska v1.4.0
Обложка: Отсутствует
Название: Stand Up Выпуск 01
Тип потока: Видео
Длительность: 00:48:49
Кодек: AVC
Кодек/описание: Advanced Video Codec
Кодек/профиль: [email protected]
Кодек/ID: V_MPEG4/ISO/AVC
Кодек/CABAC: Yes
Кодек/ReFrames: 8 frames
Размеры изображения: 768 x 432 (16:9)
Частота кадров: 25.000 fps
Частота кадров/тип: Constant
Размер потока: 389 MiB (84%)
Битрейт: 1 115 Kbps
Библиотека кодирования: x264 core 125
Цветовое пространство: YUV
Тип развёртки: Progressive
Глубина: 8 bits
Настройки кодирования: cabac=1 / ref=8 / deblock=1:-1:-1 / analyse=0x1:0x131 / me=umh / subme=9 / psy=1 / psy_rd=1.00:0.15 / mixed_ref=1 / me_range=16 / chroma_me=1 / trellis=2 / 8x8dct=0 / cqm=0 / deadzone=21,11 / fast_pskip=1 / chroma_qp_offset=-3 / threads=18 / lookahead_threads=3 / sliced_threads=0 / nr=0 / decimate=1 / interlaced=0 / bluray_compat=0 / constrained_intra=0 / bframes=3 / b_pyramid=2 / b_adapt=2 / b_bias=0 / direct=3 / weightb=1 / open_gop=0 / weightp=2 / keyint=100 / keyint_min=10 / scenecut=40 / intra_refresh=0 / rc_lookahead=60 / rc=crf / mbtree=1 / crf=17.0 / qcomp=0.60 / qpmin=0 / qpmax=69 / qpstep=4 / vbv_maxrate=1800 / vbv_bufsize=1800 / crf_max=0.0 / nal_hrd=none / ip_ratio=1.40 / aq=1:1.00
Тип потока: Звук #1
Длительность: 00:48:49.337
Кодек: AC-3
Кодек/описание: Audio Coding 3
Кодек/ID: A_AC3
Частота дискретизации: 44.1 KHz
Каналов: 2 channels
Битрейт: 192 Kbps
Битрейт/тип: Constant
Размер потока: 67.0 MiB (14%)
Глубина: 16 bits
Метод сжатия: Lossy

Stand Up Выпуск 02

Имя файла: Stand Up Выпуск 02.mkv
Формат файла: .mkv (Matroska)
Размер файла: 901.76 MB
Длительность: 46mn 1s
Навигация по главам: Нет
Битрейт (все потоки): 2 739 Kbps
Файл создан: UTC 2013-10-06 16:49:57
Создан при помощи: mkvmerge v6.1.0 ('Old Devil') built on Mar 4 2013 09:10:42
Использовалась библиотека: libebml v1.3.0 + libmatroska v1.4.0
Обложка: Отсутствует
Название: Stand Up Выпуск 02
Тип потока: Видео
Длительность: 00:46:01
Кодек: AVC
Кодек/описание: Advanced Video Codec
Кодек/профиль: [email protected]
Кодек/ID: V_MPEG4/ISO/AVC
Кодек/CABAC: Yes
Кодек/ReFrames: 8 frames
Размеры изображения: 1280 x 720 (16:9)
Частота кадров: 25.000 fps
Частота кадров/тип: Constant
Размер потока: 821 MiB (91%)
Битрейт: 2 493 Kbps
Библиотека кодирования: x264 core 125
Цветовое пространство: YUV
Тип развёртки: Progressive
Глубина: 8 bits
Настройки кодирования: cabac=1 / ref=8 / deblock=1:-1:-1 / analyse=0x3:0x133 / me=umh / subme=9 / psy=1 / psy_rd=1.00:0.15 / mixed_ref=1 / me_range=16 / chroma_me=1 / trellis=2 / 8x8dct=1 / cqm=0 / deadzone=21,11 / fast_pskip=1 / chroma_qp_offset=-3 / threads=24 / lookahead_threads=4 / sliced_threads=0 / nr=0 / decimate=1 / interlaced=0 / bluray_compat=0 / constrained_intra=0 / bframes=3 / b_pyramid=2 / b_adapt=2 / b_bias=0 / direct=3 / weightb=1 / open_gop=0 / weightp=2 / keyint=100 / keyint_min=10 / scenecut=40 / intra_refresh=0 / rc_lookahead=60 / rc=crf / mbtree=1 / crf=17.0 / qcomp=0.60 / qpmin=0 / qpmax=69 / qpstep=4 / vbv_maxrate=3600 / vbv_bufsize=3600 / crf_max=0.0 / nal_hrd=none / ip_ratio=1.40 / aq=1:1.00
Тип потока: Звук #1
Длительность: 00:46:01.400
Кодек: AC-3
Кодек/описание: Audio Coding 3
Кодек/ID: A_AC3
Частота дискретизации: 44.1 KHz
Каналов: 2 channels
Битрейт: 192 Kbps
Битрейт/тип: Constant
Размер потока: 63.2 MiB (7%)
Глубина: 16 bits
Метод сжатия: Lossy

Stand Up Выпуск 03

Имя файла: Stand Up Выпуск 03.mkv
Формат файла: .mkv (Matroska)
Размер файла: 1.02 GB
Длительность: 48mn 51s
Навигация по главам: Нет
Битрейт (все потоки): 2 975 Kbps
Файл создан: UTC 2013-10-06 16:59:23
Создан при помощи: mkvmerge v6.1.0 ('Old Devil') built on Mar 4 2013 09:10:42
Использовалась библиотека: libebml v1.3.0 + libmatroska v1.4.0
Обложка: Отсутствует
Название: Stand Up Выпуск 03
Тип потока: Видео
Длительность: 00:48:51
Кодек: AVC
Кодек/описание: Advanced Video Codec
Кодек/профиль: [email protected]
Кодек/ID: V_MPEG4/ISO/AVC
Кодек/CABAC: Yes
Кодек/ReFrames: 8 frames
Размеры изображения: 1280 x 720 (16:9)
Частота кадров: 25.000 fps
Частота кадров/тип: Constant
Размер потока: 952 MiB (92%)
Битрейт: 2 724 Kbps
Библиотека кодирования: x264 core 125
Цветовое пространство: YUV
Тип развёртки: Progressive
Глубина: 8 bits
Настройки кодирования: cabac=1 / ref=8 / deblock=1:-1:-1 / analyse=0x3:0x133 / me=umh / subme=9 / psy=1 / psy_rd=1.00:0.15 / mixed_ref=1 / me_range=16 / chroma_me=1 / trellis=2 / 8x8dct=1 / cqm=0 / deadzone=21,11 / fast_pskip=1 / chroma_qp_offset=-3 / threads=12 / lookahead_threads=2 / sliced_threads=0 / nr=0 / decimate=1 / interlaced=0 / bluray_compat=0 / constrained_intra=0 / bframes=3 / b_pyramid=2 / b_adapt=2 / b_bias=0 / direct=3 / weightb=1 / open_gop=0 / weightp=2 / keyint=100 / keyint_min=10 / scenecut=40 / intra_refresh=0 / rc_lookahead=60 / rc=crf / mbtree=1 / crf=17.0 / qcomp=0.60 / qpmin=0 / qpmax=69 / qpstep=4 / vbv_maxrate=3600 / vbv_bufsize=3600 / crf_max=0.0 / nal_hrd=none / ip_ratio=1.40 / aq=1:1.00
Тип потока: Звук #1
Длительность: 00:48:51.760
Кодек: AC-3
Кодек/описание: Audio Coding 3
Кодек/ID: A_AC3
Частота дискретизации: 44.1 KHz
Каналов: 2 channels
Битрейт: 192 Kbps
Битрейт/тип: Constant
Размер потока: 67.1 MiB (6%)
Глубина: 16 bits
Метод сжатия: Lossy

Stand Up Выпуск 04

Имя файла: Stand Up Выпуск 04.mkv
Формат файла: .mkv (Matroska)
Размер файла: 1004.98 MB
Длительность: 48mn 41s
Навигация по главам: Нет
Битрейт (все потоки): 2 886 Kbps
Файл создан: UTC 2013-10-14 05:34:40
Создан при помощи: mkvmerge v6.1.0 ('Old Devil') built on Mar 4 2013 09:10:42
Использовалась библиотека: libebml v1.3.0 + libmatroska v1.4.0
Обложка: Отсутствует
Название: Stand Up Выпуск 04
Тип потока: Видео
Длительность: 00:48:41
Кодек: AVC
Кодек/описание: Advanced Video Codec
Кодек/профиль: [email protected]
Кодек/ID: V_MPEG4/ISO/AVC
Кодек/CABAC: Yes
Кодек/ReFrames: 8 frames
Размеры изображения: 1280 x 720 (16:9)
Частота кадров: 25.000 fps
Частота кадров/тип: Constant
Размер потока: 918 MiB (91%)
Битрейт: 2 636 Kbps
Библиотека кодирования: x264 core 125
Цветовое пространство: YUV
Тип развёртки: Progressive
Глубина: 8 bits
Настройки кодирования: cabac=1 / ref=8 / deblock=1:-1:-1 / analyse=0x3:0x133 / me=umh / subme=9 / psy=1 / psy_rd=1.00:0.15 / mixed_ref=1 / me_range=16 / chroma_me=1 / trellis=2 / 8x8dct=1 / cqm=0 / deadzone=21,11 / fast_pskip=1 / chroma_qp_offset=-3 / threads=18 / lookahead_threads=3 / sliced_threads=0 / nr=0 / decimate=1 / interlaced=0 / bluray_compat=0 / constrained_intra=0 / bframes=3 / b_pyramid=2 / b_adapt=2 / b_bias=0 / direct=3 / weightb=1 / open_gop=0 / weightp=2 / keyint=100 / keyint_min=10 / scenecut=40 / intra_refresh=0 / rc_lookahead=60 / rc=crf / mbtree=1 / crf=17.0 / qcomp=0.60 / qpmin=0 / qpmax=69 / qpstep=4 / vbv_maxrate=3600 / vbv_bufsize=3600 / crf_max=0.0 / nal_hrd=none / ip_ratio=1.40 / aq=1:1.00
Тип потока: Звук #1
Длительность: 00:48:41.600
Кодек: AC-3
Кодек/описание: Audio Coding 3
Кодек/ID: A_AC3
Частота дискретизации: 44.1 KHz
Каналов: 2 channels
Битрейт: 192 Kbps
Битрейт/тип: Constant
Размер потока: 66.9 MiB (7%)
Глубина: 16 bits
Метод сжатия: Lossy

Stand Up Выпуск 05

Имя файла: Stand Up Выпуск 05.mkv
Формат файла: .mkv (Matroska)
Размер файла: 1.02 GB
Длительность: 48mn 45s
Навигация по главам: Нет
Битрейт (все потоки): 2 991 Kbps
Файл создан: UTC 2013-10-21 07:17:24
Создан при помощи: mkvmerge v6.1.0 ('Old Devil') built on Mar 4 2013 09:10:42
Использовалась библиотека: libebml v1.3.0 + libmatroska v1.4.0
Обложка: Отсутствует
Название: Stand Up Выпуск 05
Тип потока: Видео
Длительность: 00:48:45
Кодек: AVC
Кодек/описание: Advanced Video Codec
Кодек/профиль: [email protected]
Кодек/ID: V_MPEG4/ISO/AVC
Кодек/CABAC: Yes
Кодек/ReFrames: 8 frames
Размеры изображения: 1280 x 720 (16:9)
Частота кадров: 25.000 fps
Частота кадров/тип: Constant
Размер потока: 955 MiB (92%)
Битрейт: 2 739 Kbps
Библиотека кодирования: x264 core 125
Цветовое пространство: YUV
Тип развёртки: Progressive
Глубина: 8 bits
Настройки кодирования: cabac=1 / ref=8 / deblock=1:-1:-1 / analyse=0x3:0x133 / me=umh / subme=9 / psy=1 / psy_rd=1.00:0.15 / mixed_ref=1 / me_range=16 / chroma_me=1 / trellis=2 / 8x8dct=1 / cqm=0 / deadzone=21,11 / fast_pskip=1 / chroma_qp_offset=-3 / threads=12 / lookahead_threads=2 / sliced_threads=0 / nr=0 / decimate=1 / interlaced=0 / bluray_compat=0 / constrained_intra=0 / bframes=3 / b_pyramid=2 / b_adapt=2 / b_bias=0 / direct=3 / weightb=1 / open_gop=0 / weightp=2 / keyint=100 / keyint_min=10 / scenecut=40 / intra_refresh=0 / rc_lookahead=60 / rc=crf / mbtree=1 / crf=17.0 / qcomp=0.60 / qpmin=0 / qpmax=69 / qpstep=4 / vbv_maxrate=3600 / vbv_bufsize=3600 / crf_max=0.0 / nal_hrd=none / ip_ratio=1.40 / aq=1:1.00
Тип потока: Звук #1
Длительность: 00:48:45.052
Кодек: AC-3
Кодек/описание: Audio Coding 3
Кодек/ID: A_AC3
Частота дискретизации: 44.1 KHz
Каналов: 2 channels
Битрейт: 192 Kbps
Битрейт/тип: Constant
Размер потока: 66.9 MiB (6%)
Глубина: 16 bits
Метод сжатия: Lossy

Stand Up Выпуск 06

Имя файла: Stand Up Выпуск 06.mkv
Формат файла: .mkv (Matroska)
Размер файла: 906.06 MB
Длительность: 44mn 24s
Навигация по главам: Нет
Битрейт (все потоки): 2 852 Kbps
Файл создан: UTC 2013-10-27 11:53:35
Создан при помощи: mkvmerge v6.1.0 ('Old Devil') built on Mar 4 2013 09:10:42
Использовалась библиотека: libebml v1.3.0 + libmatroska v1.4.0
Обложка: Отсутствует
Название: Stand Up Выпуск 06
Тип потока: Видео
Длительность: 00:44:24
Кодек: AVC
Кодек/описание: Advanced Video Codec
Кодек/профиль: [email protected]
Кодек/ID: V_MPEG4/ISO/AVC
Кодек/CABAC: Yes
Кодек/ReFrames: 8 frames
Размеры изображения: 1280 x 720 (16:9)
Частота кадров: 25.000 fps
Частота кадров/тип: Constant
Размер потока: 827 MiB (91%)
Битрейт: 2 603 Kbps
Библиотека кодирования: x264 core 125
Цветовое пространство: YUV
Тип развёртки: Progressive
Глубина: 8 bits
Настройки кодирования: cabac=1 / ref=8 / deblock=1:-1:-1 / analyse=0x3:0x133 / me=umh / subme=9 / psy=1 / psy_rd=1.00:0.15 / mixed_ref=1 / me_range=16 / chroma_me=1 / trellis=2 / 8x8dct=1 / cqm=0 / deadzone=21,11 / fast_pskip=1 / chroma_qp_offset=-3 / threads=18 / lookahead_threads=3 / sliced_threads=0 / nr=0 / decimate=1 / interlaced=0 / bluray_compat=0 / constrained_intra=0 / bframes=3 / b_pyramid=2 / b_adapt=2 / b_bias=0 / direct=3 / weightb=1 / open_gop=0 / weightp=2 / keyint=100 / keyint_min=10 / scenecut=40 / intra_refresh=0 / rc_lookahead=60 / rc=crf / mbtree=1 / crf=17.0 / qcomp=0.60 / qpmin=0 / qpmax=69 / qpstep=4 / vbv_maxrate=3600 / vbv_bufsize=3600 / crf_max=0.0 / nal_hrd=none / ip_ratio=1.40 / aq=1:1.00
Тип потока: Звук #1
Длительность: 00:44:24.942
Кодек: AC-3
Кодек/описание: Audio Coding 3
Кодек/ID: A_AC3
Частота дискретизации: 44.1 KHz
Каналов: 2 channels
Битрейт: 192 Kbps
Битрейт/тип: Constant
Размер потока: 61.0 MiB (7%)
Глубина: 16 bits
Метод сжатия: Lossy

Stand Up Выпуск 07

Имя файла: Stand Up Выпуск 07.mkv
Формат файла: .mkv (Matroska)
Размер файла: 449.83 MB
Длительность: 49mn 6s
Навигация по главам: Нет
Битрейт (все потоки): 1 281 Kbps
Файл создан: UTC 2013-11-03 15:20:45
Создан при помощи: mkvmerge v6.1.0 ('Old Devil') built on Mar 4 2013 09:10:42
Использовалась библиотека: libebml v1.3.0 + libmatroska v1.4.0
Обложка: Отсутствует
Название: Stand Up Выпуск 07
Тип потока: Видео
Длительность: 00:49:06
Кодек: AVC
Кодек/описание: Advanced Video Codec
Кодек/профиль: [email protected]
Кодек/ID: V_MPEG4/ISO/AVC
Кодек/CABAC: Yes
Кодек/ReFrames: 8 frames
Размеры изображения: 768 x 432 (16:9)
Частота кадров: 25.000 fps
Частота кадров/тип: Constant
Размер потока: 373 MiB (83%)
Битрейт: 1 063 Kbps
Библиотека кодирования: x264 core 125
Цветовое пространство: YUV
Тип развёртки: Progressive
Глубина: 8 bits
Настройки кодирования: cabac=1 / ref=8 / deblock=1:-1:-1 / analyse=0x1:0x131 / me=umh / subme=9 / psy=1 / psy_rd=1.00:0.15 / mixed_ref=1 / me_range=16 / chroma_me=1 / trellis=2 / 8x8dct=0 / cqm=0 / deadzone=21,11 / fast_pskip=1 / chroma_qp_offset=-3 / threads=18 / lookahead_threads=3 / sliced_threads=0 / nr=0 / decimate=1 / interlaced=0 / bluray_compat=0 / constrained_intra=0 / bframes=3 / b_pyramid=2 / b_adapt=2 / b_bias=0 / direct=3 / weightb=1 / open_gop=0 / weightp=2 / keyint=100 / keyint_min=10 / scenecut=40 / intra_refresh=0 / rc_lookahead=60 / rc=crf / mbtree=1 / crf=17.0 / qcomp=0.60 / qpmin=0 / qpmax=69 / qpstep=4 / vbv_maxrate=1800 / vbv_bufsize=1800 / crf_max=0.0 / nal_hrd=none / ip_ratio=1.40 / aq=1:1.00
Тип потока: Звук #1
Длительность: 00:49:06.508
Кодек: AC-3
Кодек/описание: Audio Coding 3
Кодек/ID: A_AC3
Частота дискретизации: 44.1 KHz
Каналов: 2 channels
Битрейт: 192 Kbps
Битрейт/тип: Constant
Размер потока: 67.4 MiB (15%)
Глубина: 16 bits
Метод сжатия: Lossy

Stand Up Выпуск 08

Имя файла: Stand Up Выпуск 08.mkv
Формат файла: .mkv (Matroska)
Размер файла: 463.10 MB
Длительность: 47mn 30s
Навигация по главам: Нет
Битрейт (все потоки): 1 363 Kbps
Файл создан: UTC 2013-11-10 15:00:07
Создан при помощи: mkvmerge v6.1.0 ('Old Devil') built on Mar 4 2013 09:10:42
Использовалась библиотека: libebml v1.3.0 + libmatroska v1.4.0
Обложка: Отсутствует
Название: Stand Up Выпуск 08
Тип потока: Видео
Длительность: 00:47:30
Кодек: AVC
Кодек/описание: Advanced Video Codec
Кодек/профиль: [email protected]
Кодек/ID: V_MPEG4/ISO/AVC
Кодек/CABAC: Yes
Кодек/ReFrames: 8 frames
Размеры изображения: 768 x 432 (16:9)
Частота кадров: 25.000 fps
Частота кадров/тип: Constant
Размер потока: 389 MiB (84%)
Битрейт: 1 144 Kbps
Библиотека кодирования: x264 core 125
Цветовое пространство: YUV
Тип развёртки: Progressive
Глубина: 8 bits
Настройки кодирования: cabac=1 / ref=8 / deblock=1:-1:-1 / analyse=0x1:0x131 / me=umh / subme=9 / psy=1 / psy_rd=1.00:0.15 / mixed_ref=1 / me_range=16 / chroma_me=1 / trellis=2 / 8x8dct=0 / cqm=0 / deadzone=21,11 / fast_pskip=1 / chroma_qp_offset=-3 / threads=12 / lookahead_threads=2 / sliced_threads=0 / nr=0 / decimate=1 / interlaced=0 / bluray_compat=0 / constrained_intra=0 / bframes=3 / b_pyramid=2 / b_adapt=2 / b_bias=0 / direct=3 / weightb=1 / open_gop=0 / weightp=2 / keyint=100 / keyint_min=10 / scenecut=40 / intra_refresh=0 / rc_lookahead=60 / rc=crf / mbtree=1 / crf=17.0 / qcomp=0.60 / qpmin=0 / qpmax=69 / qpstep=4 / vbv_maxrate=1800 / vbv_bufsize=1800 / crf_max=0.0 / nal_hrd=none / ip_ratio=1.40 / aq=1:1.00
Тип потока: Звук #1
Длительность: 00:47:30.560
Кодек: AC-3
Кодек/описание: Audio Coding 3
Кодек/ID: A_AC3
Частота дискретизации: 44.1 KHz
Каналов: 2 channels
Битрейт: 192 Kbps
Битрейт/тип: Constant
Размер потока: 65.2 MiB (14%)
Глубина: 16 bits
Метод сжатия: Lossy

Stand Up Выпуск 09

Имя файла: Stand Up Выпуск 09.mkv
Формат файла: .mkv (Matroska)
Размер файла: 476.93 MB
Длительность: 49mn 17s
Навигация по главам: Нет
Битрейт (все потоки): 1 353 Kbps
Файл создан: UTC 2013-11-17 13:29:26
Создан при помощи: mkvmerge v6.1.0 ('Old Devil') built on Mar 4 2013 09:10:42
Использовалась библиотека: libebml v1.3.0 + libmatroska v1.4.0
Обложка: Отсутствует
Название: Stand Up Выпуск 09
Тип потока: Видео
Длительность: 00:49:17
Кодек: AVC
Кодек/описание: Advanced Video Codec
Кодек/профиль: [email protected]
Кодек/ID: V_MPEG4/ISO/AVC
Кодек/CABAC: Yes
Кодек/ReFrames: 8 frames
Размеры изображения: 768 x 432 (16:9)
Частота кадров: 25.000 fps
Частота кадров/тип: Constant
Размер потока: 400 MiB (84%)
Битрейт: 1 134 Kbps
Библиотека кодирования: x264 core 125
Цветовое пространство: YUV
Тип развёртки: Progressive
Глубина: 8 bits
Настройки кодирования: cabac=1 / ref=8 / deblock=1:-1:-1 / analyse=0x1:0x131 / me=umh / subme=9 / psy=1 / psy_rd=1.00:0.15 / mixed_ref=1 / me_range=16 / chroma_me=1 / trellis=2 / 8x8dct=0 / cqm=0 / deadzone=21,11 / fast_pskip=1 / chroma_qp_offset=-3 / threads=18 / lookahead_threads=3 / sliced_threads=0 / nr=0 / decimate=1 / interlaced=0 / bluray_compat=0 / constrained_intra=0 / bframes=3 / b_pyramid=2 / b_adapt=2 / b_bias=0 / direct=3 / weightb=1 / open_gop=0 / weightp=2 / keyint=100 / keyint_min=10 / scenecut=40 / intra_refresh=0 / rc_lookahead=60 / rc=crf / mbtree=1 / crf=17.0 / qcomp=0.60 / qpmin=0 / qpmax=69 / qpstep=4 / vbv_maxrate=1800 / vbv_bufsize=1800 / crf_max=0.0 / nal_hrd=none / ip_ratio=1.40 / aq=1:1.00
Тип потока: Звук #1
Длительность: 00:49:17.800
Кодек: AC-3
Кодек/описание: Audio Coding 3
Кодек/ID: A_AC3
Частота дискретизации: 44.1 KHz
Каналов: 2 channels
Битрейт: 192 Kbps
Битрейт/тип: Constant
Размер потока: 67.7 MiB (14%)
Глубина: 16 bits
Метод сжатия: Lossy

Stand Up Выпуск 10

Имя файла: Stand Up Выпуск 10.mkv
Формат файла: .mkv (Matroska)
Размер файла: 1.02 GB
Длительность: 47mn 58s
Навигация по главам: Нет
Битрейт (все потоки): 3 055 Kbps
Файл создан: UTC 2013-11-24 11:36:12
Создан при помощи: mkvmerge v6.1.0 ('Old Devil') built on Mar 4 2013 09:10:42
Использовалась библиотека: libebml v1.3.0 + libmatroska v1.4.0
Обложка: Отсутствует
Название: Stand Up Выпуск 10
Тип потока: Видео
Длительность: 00:47:58
Кодек: AVC
Кодек/описание: Advanced Video Codec
Кодек/профиль: [email protected]
Кодек/ID: V_MPEG4/ISO/AVC
Кодек/CABAC: Yes
Кодек/ReFrames: 8 frames
Размеры изображения: 1280 x 720 (16:9)
Частота кадров: 25.000 fps
Частота кадров/тип: Constant
Размер потока: 962 MiB (92%)
Битрейт: 2 802 Kbps
Библиотека кодирования: x264 core 125
Цветовое пространство: YUV
Тип развёртки: Progressive
Глубина: 8 bits
Настройки кодирования: cabac=1 / ref=8 / deblock=1:-1:-1 / analyse=0x3:0x133 / me=umh / subme=9 / psy=1 / psy_rd=1.00:0.15 / mixed_ref=1 / me_range=16 / chroma_me=1 / trellis=2 / 8x8dct=1 / cqm=0 / deadzone=21,11 / fast_pskip=1 / chroma_qp_offset=-3 / threads=12 / lookahead_threads=2 / sliced_threads=0 / nr=0 / decimate=1 / interlaced=0 / bluray_compat=0 / constrained_intra=0 / bframes=3 / b_pyramid=2 / b_adapt=2 / b_bias=0 / direct=3 / weightb=1 / open_gop=0 / weightp=2 / keyint=100 / keyint_min=10 / scenecut=40 / intra_refresh=0 / rc_lookahead=60 / rc=crf / mbtree=1 / crf=17.0 / qcomp=0.60 / qpmin=0 / qpmax=69 / qpstep=4 / vbv_maxrate=3600 / vbv_bufsize=3600 / crf_max=0.0 / nal_hrd=none / ip_ratio=1.40 / aq=1:1.00
Тип потока: Звук #1
Длительность: 00:47:58.693
Кодек: AC-3
Кодек/описание: Audio Coding 3
Кодек/ID: A_AC3
Частота дискретизации: 44.1 KHz
Каналов: 2 channels
Битрейт: 192 Kbps
Битрейт/тип: Constant
Размер потока: 65.9 MiB (6%)
Глубина: 16 bits
Метод сжатия: Lossy

Stand Up Выпуск 11

Имя файла: Stand Up Выпуск 11.mkv
Формат файла: .mkv (Matroska)
Размер файла: 1.06 GB
Длительность: 50mn 7s
Навигация по главам: Нет
Битрейт (все потоки): 3 015 Kbps
Файл создан: UTC 2013-12-01 11:49:10
Создан при помощи: mkvmerge v6.5.0 ('Isn't she lovely') built on Oct 20 2013 12:50:05
Использовалась библиотека: libebml v1.3.0 + libmatroska v1.4.1
Обложка: Отсутствует
Название: Stand Up Выпуск 11
Тип потока: Видео
Длительность: 00:50:07
Кодек: AVC
Кодек/описание: Advanced Video Codec
Кодек/профиль: [email protected]
Кодек/ID: V_MPEG4/ISO/AVC
Кодек/CABAC: Yes
Кодек/ReFrames: 8 frames
Размеры изображения: 1280 x 720 (16:9)
Частота кадров: 25.000 fps
Частота кадров/тип: Constant
Библиотека кодирования: x264 core 125
Цветовое пространство: YUV
Тип развёртки: Progressive
Глубина: 8 bits
Настройки кодирования: cabac=1 / ref=8 / deblock=1:-1:-1 / analyse=0x3:0x133 / me=umh / subme=9 / psy=1 / psy_rd=1.00:0.15 / mixed_ref=1 / me_range=16 / chroma_me=1 / trellis=2 / 8x8dct=1 / cqm=0 / deadzone=21,11 / fast_pskip=1 / chroma_qp_offset=-3 / threads=12 / lookahead_threads=2 / sliced_threads=0 / nr=0 / decimate=1 / interlaced=0 / bluray_compat=0 / constrained_intra=0 / bframes=3 / b_pyramid=2 / b_adapt=2 / b_bias=0 / direct=3 / weightb=1 / open_gop=0 / weightp=2 / keyint=100 / keyint_min=10 / scenecut=40 / intra_refresh=0 / rc_lookahead=60 / rc=crf / mbtree=1 / crf=17.0 / qcomp=0.60 / qpmin=0 / qpmax=69 / qpstep=4 / vbv_maxrate=3600 / vbv_bufsize=3600 / crf_max=0.0 / nal_hrd=none / ip_ratio=1.40 / aq=1:1.00
Тип потока: Звук #1
Длительность: 00:50:07.940
Кодек: AAC
Кодек/описание: Advanced Audio Codec
Кодек/профиль: LC
Кодек/ID: A_AAC
Частота дискретизации: 44.1 KHz
Каналов: 2 channels
Метод сжатия: Lossy

Stand Up Выпуск 12

Имя файла: Stand Up Выпуск 12.mkv
Формат файла: .mkv (Matroska)
Размер файла: 961.34 MB
Длительность: 47mn 26s
Навигация по главам: Нет
Битрейт (все потоки): 2 833 Kbps
Файл создан: UTC 2013-12-08 11:08:14
Создан при помощи: mkvmerge v6.1.0 ('Old Devil') built on Mar 4 2013 09:10:42
Использовалась библиотека: libebml v1.3.0 + libmatroska v1.4.0
Обложка: Отсутствует
Название: Stand Up Выпуск 12
Тип потока: Видео
Длительность: 00:47:26
Кодек: AVC
Кодек/описание: Advanced Video Codec
Кодек/профиль: [email protected]
Кодек/ID: V_MPEG4/ISO/AVC
Кодек/CABAC: Yes
Кодек/ReFrames: 8 frames
Размеры изображения: 1280 x 720 (16:9)
Частота кадров: 25.000 fps
Частота кадров/тип: Constant
Размер потока: 877 MiB (91%)
Битрейт: 2 584 Kbps
Библиотека кодирования: x264 core 125
Цветовое пространство: YUV
Тип развёртки: Progressive
Глубина: 8 bits
Настройки кодирования: cabac=1 / ref=8 / deblock=1:-1:-1 / analyse=0x3:0x133 / me=umh / subme=9 / psy=1 / psy_rd=1.00:0.15 / mixed_ref=1 / me_range=16 / chroma_me=1 / trellis=2 / 8x8dct=1 / cqm=0 / deadzone=21,11 / fast_pskip=1 / chroma_qp_offset=-3 / threads=18 / lookahead_threads=3 / sliced_threads=0 / nr=0 / decimate=1 / interlaced=0 / bluray_compat=0 / constrained_intra=0 / bframes=3 / b_pyramid=2 / b_adapt=2 / b_bias=0 / direct=3 / weightb=1 / open_gop=0 / weightp=2 / keyint=100 / keyint_min=10 / scenecut=40 / intra_refresh=0 / rc_lookahead=60 / rc=crf / mbtree=1 / crf=17.0 / qcomp=0.60 / qpmin=0 / qpmax=69 / qpstep=4 / vbv_maxrate=3600 / vbv_bufsize=3600 / crf_max=0.0 / nal_hrd=none / ip_ratio=1.40 / aq=1:1.00
Тип потока: Звук #1
Длительность: 00:47:26.720
Кодек: AC-3
Кодек/описание: Audio Coding 3
Кодек/ID: A_AC3
Частота дискретизации: 44.1 KHz
Каналов: 2 channels
Битрейт: 192 Kbps
Битрейт/тип: Constant
Размер потока: 65.2 MiB (7%)
Глубина: 16 bits
Метод сжатия: Lossy

Stand Up Выпуск 13

Имя файла: Stand Up Выпуск 13.mkv
Формат файла: .mkv (Matroska)
Размер файла: 1.05 GB
Длительность: 49mn 22s
Навигация по главам: Нет
Битрейт (все потоки): 3 032 Kbps
Файл создан: UTC 2013-12-15 15:39:34
Создан при помощи: mkvmerge v4.0.0 ('The Stars were mine') сборка от Jun 6 2010 16:18:42
Использовалась библиотека: libebml v1.0.0 + libmatroska v1.0.0
Обложка: Отсутствует
Название: Stand Up Выпуск 13
Тип потока: Видео
Длительность: 00:49:22
Кодек: AVC
Кодек/описание: Advanced Video Codec
Кодек/профиль: [email protected]
Кодек/ID: V_MPEG4/ISO/AVC
Кодек/CABAC: Yes
Кодек/ReFrames: 8 frames
Размеры изображения: 1280 x 720 (16:9)
Частота кадров: 25.000 fps
Частота кадров/тип: Constant
Размер потока: 982 MiB (92%)
Битрейт: 2 780 Kbps
Библиотека кодирования: x264 core 125
Цветовое пространство: YUV
Тип развёртки: Progressive
Глубина: 8 bits
Настройки кодирования: cabac=1 / ref=8 / deblock=1:-1:-1 / analyse=0x3:0x133 / me=umh / subme=9 / psy=1 / psy_rd=1.00:0.15 / mixed_ref=1 / me_range=16 / chroma_me=1 / trellis=2 / 8x8dct=1 / cqm=0 / deadzone=21,11 / fast_pskip=1 / chroma_qp_offset=-3 / threads=12 / lookahead_threads=2 / sliced_threads=0 / nr=0 / decimate=1 / interlaced=0 / bluray_compat=0 / constrained_intra=0 / bframes=3 / b_pyramid=2 / b_adapt=2 / b_bias=0 / direct=3 / weightb=1 / open_gop=0 / weightp=2 / keyint=100 / keyint_min=10 / scenecut=40 / intra_refresh=0 / rc_lookahead=60 / rc=crf / mbtree=1 / crf=17.0 / qcomp=0.60 / qpmin=0 / qpmax=69 / qpstep=4 / vbv_maxrate=3600 / vbv_bufsize=3600 / crf_max=0.0 / nal_hrd=none / ip_ratio=1.40 / aq=1:1.00
Тип потока: Звук #1
Язык: Russian
Длительность: 00:49:22.041
Кодек: AC-3
Кодек/описание: Audio Coding 3
Кодек/ID: A_AC3
Частота дискретизации: 44.1 KHz
Каналов: 2 channels
Битрейт: 192 Kbps
Битрейт/тип: Constant
Размер потока: 67.8 MiB (6%)
Глубина: 16 bits
Метод сжатия: Lossy

Stand Up Выпуск 14

Имя файла: Stand Up Выпуск 14.mkv
Формат файла: .mkv (Matroska)
Размер файла: 954.41 MB
Длительность: 46mn 43s
Навигация по главам: Нет
Битрейт (все потоки): 2 856 Kbps
Создан при помощи: Lavf54.29.104
Использовалась библиотека: Lavf54.29.104
Обложка: Отсутствует
Название: Stand Up Выпуск 14
Тип потока: Видео
Длительность: 00:46:43
Кодек: AVC
Кодек/описание: Advanced Video Codec
Кодек/профиль: [email protected]
Кодек/ID: V_MPEG4/ISO/AVC
Кодек/CABAC: Yes
Кодек/ReFrames: 8 frames
Размеры изображения: 1280 x 720 (16:9)
Частота кадров: 25.000 fps
Частота кадров/тип: Constant
Размер потока: 871 MiB (91%)
Битрейт: 2 607 Kbps
Библиотека кодирования: x264 core 125
Цветовое пространство: YUV
Тип развёртки: Progressive
Глубина: 8 bits
Настройки кодирования: cabac=1 / ref=8 / deblock=1:-1:-1 / analyse=0x3:0x133 / me=umh / subme=9 / psy=1 / psy_rd=1.00:0.15 / mixed_ref=1 / me_range=16 / chroma_me=1 / trellis=2 / 8x8dct=1 / cqm=0 / deadzone=21,11 / fast_pskip=1 / chroma_qp_offset=-3 / threads=18 / lookahead_threads=3 / sliced_threads=0 / nr=0 / decimate=1 / interlaced=0 / bluray_compat=0 / constrained_intra=0 / bframes=3 / b_pyramid=2 / b_adapt=2 / b_bias=0 / direct=3 / weightb=1 / open_gop=0 / weightp=2 / keyint=100 / keyint_min=10 / scenecut=40 / intra_refresh=0 / rc_lookahead=60 / rc=crf / mbtree=1 / crf=17.0 / qcomp=0.60 / qpmin=0 / qpmax=69 / qpstep=4 / vbv_maxrate=3600 / vbv_bufsize=3600 / crf_max=0.0 / nal_hrd=none / ip_ratio=1.40 / aq=1:1.00
Тип потока: Звук #1
Длительность: 00:46:43.220
Кодек: AC-3
Кодек/описание: Audio Coding 3
Кодек/ID: A_AC3
Частота дискретизации: 44.1 KHz
Каналов: 2 channels
Битрейт: 192 Kbps
Битрейт/тип: Constant
Размер потока: 64.2 MiB (7%)
Глубина: 16 bits
Метод сжатия: Lossy

Stand Up Выпуск 15

Имя файла: Stand Up Выпуск 15.mkv
Формат файла: .mkv (Matroska)
Размер файла: 1.03 GB
Длительность: 50mn 0s
Навигация по главам: Нет
Битрейт (все потоки): 2 957 Kbps
Файл создан: UTC 2013-12-28 19:02:20
Создан при помощи: mkvmerge v6.6.0 ('The Edge Of The In Between') built on Dec 1 2013 17:55:00
Использовалась библиотека: libebml v1.3.0 + libmatroska v1.4.1
Обложка: Отсутствует
Название: Stand Up Выпуск 15
Тип потока: Видео
Длительность: 00:50:00
Кодек: AVC
Кодек/описание: Advanced Video Codec
Кодек/профиль: [email protected]
Кодек/ID: V_MPEG4/ISO/AVC
Кодек/CABAC: Yes
Кодек/ReFrames: 8 frames
Размеры изображения: 1280 x 720 (16:9)
Частота кадров: 25.000 fps
Частота кадров/тип: Constant
Библиотека кодирования: x264 core 125
Цветовое пространство: YUV
Тип развёртки: Progressive
Глубина: 8 bits
Настройки кодирования: cabac=1 / ref=8 / deblock=1:-1:-1 / analyse=0x3:0x133 / me=umh / subme=9 / psy=1 / psy_rd=1.00:0.15 / mixed_ref=1 / me_range=16 / chroma_me=1 / trellis=2 / 8x8dct=1 / cqm=0 / deadzone=21,11 / fast_pskip=1 / chroma_qp_offset=-3 / threads=12 / lookahead_threads=2 / sliced_threads=0 / nr=0 / decimate=1 / interlaced=0 / bluray_compat=0 / constrained_intra=0 / bframes=3 / b_pyramid=2 / b_adapt=2 / b_bias=0 / direct=3 / weightb=1 / open_gop=0 / weightp=2 / keyint=100 / keyint_min=10 / scenecut=40 / intra_refresh=0 / rc_lookahead=60 / rc=crf / mbtree=1 / crf=17.0 / qcomp=0.60 / qpmin=0 / qpmax=69 / qpstep=4 / vbv_maxrate=3600 / vbv_bufsize=3600 / crf_max=0.0 / nal_hrd=none / ip_ratio=1.40 / aq=1:1.00
Тип потока: Звук #1
Длительность: 00:50:00.660
Кодек: AAC
Кодек/описание: Advanced Audio Codec
Кодек/профиль: LC
Кодек/ID: A_AAC
Частота дискретизации: 44.1 KHz
Каналов: 2 channels
Метод сжатия: Lossy

Скриншоты

Внимание!
Раздача ведётся путём добавления новых серий!
Торрент обновлен, добавлена 15ая серия
Яндекс.Метрика
Рейтинг@Mail.ru