Бесшабашное ограбление / Старк Равин Псих / Stark Raving Mad (Дрю Дэйуолт / Drew Daywalt, ...) [2002 г., боевик, комедия, HD DVDRip-AVC] Dub [МОСФИЛЬМ-мастер 2002] + Sub (Rus)

 

Создавать темы 20-Сен-2016 03:56

-Бесшабашное ограбление / Старк Равин Псих / Stark Raving Mad-- Производство: США, A Band Apart, Newmarket Capital Group LLC, Stark Raving Productions Inc., Summit Entertainment, ...
Год выпуска: 2002 г.
Жанр: боевик, комедия
Продолжительность: 01:36:50Мировая премьера: 23 августа 2002
Российская премьера: 23 мая 2002, «West»
Дата выхода DVD: 10 сентября 2002, «West Video»
Перевод: Профессиональный (полное дублирование) [МОСФИЛЬМ-мастер 2002]
Режиссер: Дрю Дэйуолт / Drew Daywalt, ...-В ролях: Шонн Уильям Скотт Тимм Шарп, Патрик Брин, Джон Б. Край, Сьюзи Накамура, Лу Даймонд Филлипс, Дэйв Фоли, Каван Смит, Пол Хангерфорд, Монит Мазур, ...-Описание: У Бена есть возможность ограбить банк. А в качестве прикрытия устроить в соседнем ночном клубе мощное рэйв-шоу. У его команды всего 7 часов, чтобы просверлить стену, проникнуть в банк и сорвать куш.Но на их пути оказываются тысячи препятствий; замаскированные федеральные агенты, китайская мафия, распоясавшиеся трансвеститы и удав…-
Качество видео: HD DVDRip-AVC
Контейнер: MKV
Видео кодек: MPEG4 AVC
Аудио кодек: AC3
Видео: 1024x576, 4500 kbps, 25 fps
Аудио: AC-3, 6 ch, 448 kbps, 48,0 kHz
Cубтитры: русские
Формат субтитров: softsub (SRT)
Доп. информация о субтитрах: включаемые

Рецензия

Несколько нестардартный боевик — я ждал только действия, экшена, с попаданиями в смешные ситуации и саморазумеющимся хеппи-эндом. Однако, фильм этот другого типа. Это не фильм для вечерка и совсем не комедия, хотя там есть по-настоящему юморые моменты.Главные достоинства фильма — это игра Скотта и некий шарм этой тёмной вечеринки, этих тусовщиков. Неординарный сюжет. Да и всё, пожалуй.Минус у этого фильма только один, да и то маленький — порой фильм просто не смотрится, немного затянуто. Но мне фильм понравился. В первую очередь, конечно, из-за шарма и игры Скотта.8 из 10

Media Info

oбщее
Уникальный идентификатор : 233339076080335395481459445976382499609 (0xAF8B78AC7B915C3CAF22E2E19A86EB19)
Полное имя : C:\герои 7\Бесшабашное ограбление\Stark Raving Mad.2002.DVDRip.[pirat.ca].mkv
Формат : Matroska
Версия формата : Version 2
Размер файла : 3,35 Гбайт
Продолжительность : 1 ч. 36 м.
Общий поток : 4949 Кбит/сек
Дата кодирования : UTC 2016-09-18 03:41:11
Программа кодирования : mkvmerge v5.3.0 ('I could have danced') built on Feb 9 2012 10:38:07
Библиотека кодирования : libebml v1.2.3 + libmatroska v1.3.0Видео
Идентификатор : 1
Формат : AVC
Формат/Информация : Advanced Video Codec
Профиль формата : [email protected]/* */
Параметр CABAC формата : Да
Параметр ReFrames формата : 12 кадров
Идентификатор кодека : V_MPEG4/ISO/AVC
Продолжительность : 1 ч. 36 м.
Битрейт : 4500 Кбит/сек
Ширина : 1024 пикселя
Высота : 576 пикселей
Соотношение сторон : 16:9
Режим частоты кадров : Постоянный
Частота кадров : 25,000 кадров/сек
Цветовое пространство : YUV
Субдискретизация насыщенности : 4:2:0
Битовая глубина : 8 бит
Тип развёртки : Прогрессивная
Бит/(Пиксели*Кадры) : 0.305
Размер потока : 2,98 Гбайт (89%)
Библиотека кодирования : x264 core 146 r2538 121396c
Настройки программы : cabac=1 / ref=12 / deblock=1:-3:-3 / analyse=0x3:0x133 / me=umh / subme=11 / psy=1 / psy_rd=1.00:0.00 / mixed_ref=1 / me_range=32 / chroma_me=1 / trellis=2 / 8x8dct=1 / cqm=0 / deadzone=21,11 / fast_pskip=0 / chroma_qp_offset=-2 / threads=12 / lookahead_threads=2 / sliced_threads=0 / nr=0 / decimate=0 / interlaced=0 / bluray_compat=0 / constrained_intra=0 / bframes=12 / b_pyramid=2 / b_adapt=2 / b_bias=0 / direct=3 / weightb=1 / open_gop=0 / weightp=2 / keyint=250 / keyint_min=25 / scenecut=40 / intra_refresh=0 / rc=2pass / mbtree=0 / bitrate=4500 / ratetol=1.0 / qcomp=0.60 / qpmin=0 / qpmax=69 / qpstep=4 / cplxblur=20.0 / qblur=0.5 / ip_ratio=1.40 / pb_ratio=1.30 / aq=1:0.80
Язык : English
Default : Нет
Forced : НетАудио
Идентификатор : 2
Формат : AC-3
Формат/Информация : Audio Coding 3
Расширение режима : CM (complete main)
Параметр Endianness формата : Big
Идентификатор кодека : A_AC3
Продолжительность : 1 ч. 36 м.
Вид битрейта : Постоянный
Битрейт : 448 Кбит/сек
Каналы : 6 каналов
Расположение каналов : Front: L C R, Side: L R, LFE
Частота : 48,0 КГц
Частота кадров : 31,250 кадров/сек (1536 spf)
Метод сжатия : С потерями
Размер потока : 310 Мбайт (9%)
Заголовок : Dub МОСФИЛЬМ-мастер
Язык : Russian
Default : Нет
Forced : НетТекст
Идентификатор : 3
Формат : UTF-8
Идентификатор кодека : S_TEXT/UTF8
Идентификатор кодека/Информация : UTF-8 Plain Text
Язык : Russian
Default : Нет
Forced : Нет

Скриншоты

Трейлер

Яндекс.Метрика
Рейтинг@Mail.ru