Баллистика: Экс против Сивер / Ballistic: Ecks vs. Sever (Вуч Каосаянанда / Wych Kaosayananda) [2002 г., боевик, DVDRip] MVO [Невафильм 2003]

 

Создавать темы 20-Сен-2016 03:53

-Баллистика: Экс против Сивер / Ballistic: Ecks vs. Sever-- Производство: США, Германия, Chris Lee Productions, Dante Entertainment, Epsilon Motion Pictures, Franchise Pictures, MHF Erste Academy Film GmbH & Co. Produktions KG, SuperMega, ...
Год выпуска: 2002 г.
Жанр: боевик
Продолжительность: 01:32:01Мировая премьера: 18 сентября 2002
Российская премьера: 13 февраля 2003, «Каскад»
Перевод: Профессиональный (многоголосый, закадровый) [Невафильм 2003]
Режиссер: Вуч Каосаянанда / Wych Kaosayananda-В ролях: Антонио Бандерас, Люси Лью, Грегг Генри, Рэй Парк, Талиса Сото, Мигель Сандоваль, Терри Чен, Роджер Р. Кросс, Сандрин Холт, Стив Бачич-Описание: Два лучших секретных агента в мире. Одна общая месть. Агент Экс — лучший оперативник, который когда-либо работал на ФБР. Китайский агент Сивер — самая смертоносная женщина планеты. В войне спецслужб мира они — противники, ведущие друг с другом отчаянную игру в кошки-мышки, где ни один не может взять верх. Казалось, их противостояние могло бы длиться вечно, но однажды происходит неожиданное: герои вынуждены выступить вместе против общего, мощного, страшного врага, завладевшего новейшим оружием, ярая ненависть к которому затмевает их собственное соперничество. Каждый из них и поодиночке стоил целой армии. Что же будет, когда Экс и Сивер объединят свои усилия? Правильный ответ прост: Армагеддон!..-
Качество видео: DVDRip
Контейнер: AVI
Видео кодек: XviD
Аудио кодек: AC3
Видео: 720x304 (2.37:1), 23.976 fps, XviD build 50 ~1821 kbps avg, 0.35 bit/pixel
Аудио: 48 kHz, AC3 Dolby Digital, 2/0 (L,R) ch, ~448 kbps
Cубтитры: отсутствуют

Рецензия

Ну, я бы не согласилась с тем что фильм ужасный, не хуже других боевиков, не шедевр конечно, но снято добротно. Красивые трюки, спецэффекты и не плохой состав актеров. Есть гораздо слабее фильмы. Мне понравился фильм как развлекательное, незатейлевое кино для всей семьи.

Media Info

Общее
Полное имя : J:\Баллистика Экс против Сивер\Ballistic.2002.DVDRip.[pirat.ca].avi
Формат : AVI
Формат/Информация : Audio Video Interleave
Размер файла : 1,46 Гбайт
Продолжительность : 1 ч. 32 м.
Общий поток : 2274 Кбит/сек
Программа кодирования : VirtualDubMod 1.5.10.3 | www.virtualdub-fr.org || (build 2550/release)Видео
Идентификатор : 0
Формат : MPEG-4 Visual
Профиль формата : Advanced [email protected]/* */
Параметр BVOP формата : 3
Параметр QPel формата : Нет
Параметр GMC формата : Без точки перехода
Параметр матрицы формата : Default (H.263)
Идентификатор кодека : XVID
Идентификатор кодека/Подсказка : XviD
Продолжительность : 1 ч. 32 м.
Битрейт : 1821 Кбит/сек
Ширина : 720 пикселей
Высота : 304 пикселя
Соотношение сторон : 2,35:1
Частота кадров : 23,976 (24000/1001) кадра/сек
Цветовое пространство : YUV
Субдискретизация насыщенности : 4:2:0
Битовая глубина : 8 бит
Тип развёртки : Прогрессивная
Метод сжатия : С потерями
Бит/(Пиксели*Кадры) : 0.347
Размер потока : 1,17 Гбайт (80%)
Библиотека кодирования : XviD 1.2.1 (UTC 2008-12-04)Аудио
Идентификатор : 1
Формат : AC-3
Формат/Информация : Audio Coding 3
Расширение режима : CM (complete main)
Параметр Endianness формата : Big
Идентификатор кодека : 2000
Продолжительность : 1 ч. 31 м.
Вид битрейта : Постоянный
Битрейт : 448 Кбит/сек
Каналы : 2 канала
Расположение каналов : Front: L R
Частота : 48,0 КГц
Частота кадров : 31,250 кадров/сек (1536 spf)
Метод сжатия : С потерями
Размер потока : 292 Мбайт (20%)
Выравнивание : Разделение по промежуткам
Продолжительность промежутка : 42 мс. (1,01 видеокадр)
Время предзагрузки промежутка : 500 мс.

Скриншот c названием фильма

Скриншоты

Трейлер

Яндекс.Метрика
Рейтинг@Mail.ru