Жирный город / Fat City (Джон Хьюстон / John Huston) [1972 г., драма, спорт, BDRip, 720p] MVO [R5]

 

Создавать темы 20-Сен-2016 03:51

-Жирный город / Fat City-- Производство: США, Columbia Pictures Corporation, Rastar Pictures
Год выпуска: 1972 г.
Жанр: драма, спорт
Продолжительность: 01:36:46Мировая премьера: 26 июля 1972
Перевод: Профессиональный (многоголосый, закадровый) [R5]
Режиссер: Джон Хьюстон / John Huston-В ролях: Стейси Кич / Stacy Keach /, Джефф Бриджес / Jeff Bridges, Сьюзен Тайрелл / Susan Tyrell, Кэнди Кларк / Candy Clark, Николас Коласанто / Nicholas Colasanto, Кертис Кокс / Curtis Cokes-Описание: Фильм, в самых мрачных красках описывающий мир профессионального бокса. Боксеры Эрни и Талли находятся на поворотном моменте жизни. Талли — обычный парень из народа. Он уже прошел пик своей удачи, конец звездной карьеры не за горами, Эрни же только начинает добывать первые победы.-
Качество видео: BDRip
Контейнер: MKV
Стандарт разрешения: 720p
Видео кодек: MPEG4 AVC
Аудио кодек: AC3
Видео: 1280x720 (16:9), 23.976 fps, AVC, ~4140 Kbps, 0.187 bits/pixel
Аудио: 48.0 KHz, AC3, 2 ch, 192 Kbps
Cубтитры: отсутствуют

Рецензия

Жирный город«Жирный город» — лента, снятая в зените режиссерской славы Д. Хьюстона, после его многочисленных кассовых и художественных удач. Вторгаясь на территорию Д. Кассаветеса, экспериментируя с искусной имитацией импровизационного стиля повествования, диалогов и актерской игры, режиссер чувствует себя как дома, несмотря на кажущуюся эстетическую чуждость такого подхода мастеру нуаров и приключенческих драм.С первых же кадров покоряет безукоризненно точно выбранное колористическое решение — предпочтение стертых, блеклых цветов и приглушенного освещения, придающих изображению доверительную интонацию. Вторым визуальным достоинством является работа с пространством, удивительно просторным, не захламленным ненужными деталями, предоставляющим возможность артистам свободно перемещаться по нему расслаблено и раскрепощено, что стало залогом удивительно естественной актерской игры всех исполнителей без исключения, комфортно себя чувствующих в образах аутсайдеров.Хьюстон избегает распространенного клише фильмов и маргиналах, решенных в сугубо пессимистических тонах, их склонности к использованию жестоких и патологических деталей как в действии, так и в характеристиках персонажей, «Жирный город» показывает выброшенных на обочину жизни людей вполне обычными и нормальными, достойными сочувствия, а не слезливой жалости (как в «Чертополохе» Э. Бабенко).Определенный сдержанный оптимизм, трезво оценивающий возможности героев к социальной адаптации, но при этом дающий на нее надежду, выделяет фильм среди подобных. Выбор на главную роль С. Кича, тогда еще не пережившего час актерской славы в роли М. Хаммера, звезды детективных романов М. Спиллейна, полностью оправдан: удивляет богатство эмоциональных оттенков в образе оказавшегося не у дел, некогда удачливого боксера, способность актера подчеркнуть человеческое достоинство персонажа даже в малопривлекательных ситуациях.Герой Кича не похож на отталкивающего персонажа «Пьяни», пусть и наделенного талантом, Билли в гораздо меньшей степени одарен, чем Генри Чинански, однако, он не оправдывает свои жизненные неудачи недружелюбностью социального фона, в отличие от альтер эго Ч. Буковски. Хьюстон делает повествование достаточно разнообразным, лишая его привычной для фильмов о маргиналах монотонности: Билли переживает пусть и кратковременный, но взлет, победу над собой и обстоятельствами, которая хоть и сменяется неудачами, но имеет все шансы повториться при соблюдении им требовательности к себе.Будто воспроизводя основную драматическую коллизию «Необузданных» Н. Рэя, Хьюстон уже во второй сцене вводит своеобразного двойника Билли — молодого, начинающего боксера, которому также суждено испытать взлеты и падения в профессии, показанных без взвинченного трагизма, но с мудрым стоицизмом. Д. Бриджесс, зарекомендовавший себя двумя годами ранее как перспективный дебютант в «Последнем киносеансе» П. Богдановича, в «Жирном городе» создает образ наивного, честного парня, не искушенного в жизненных тяготах, но обладающего большим ресурсом экзистенциальной выносливости, что тоже добавляет ленте оптимизма.Актерский тандем Кича и Бриджесса постоянно меняет характеристику отношений персонажей как наставника/ученика, отца/сына, неудачника/счастливчика, что существенно обогащает психологический фон повествования. Несмотря на осознанное ослабление режиссером драматического напряжения изображаемых ситуаций, разворачивающихся в основном в баре и спортзале, внимание зрителя удерживается на каждой из них, и нарратив производит впечатление целостной, а не сегментированной структуры, тщательно проработанной и лишь мимикрирующей под импровизационную рыхлость.«Жирный город» обозначает подлинную веху в истории кино о маргиналах, предлагая свежий концептуальный подход, непривычную для жанра в меру оптимистическую и при этом трезвую, сдержанную и человечную, но лишенную слащавой сентиментальности интонацию в описании жизни аутсайдеров, что делает их гораздо ближе к нам, чем, когда из изображают опустившимися, завистливыми, исполненными желчи лузерами.

Media Info

Общее
Уникальный идентификатор : 181753196413033736848015116632558700550 (0x88BC6470C983FFB3AC283370DA1C8806)
Полное имя : D:\D\Жирный Город\Zhirnij Gorod.1972.BDRip720p.[pirat.ca].mkv
Формат : Matroska
Версия формата : Version 2
Размер файла : 2,93 Гбайт
Продолжительность : 1 ч. 36 м.
Общий поток : 4333 Кбит/сек
Дата кодирования : UTC 2016-09-18 04:39:46
Программа кодирования : mkvmerge v5.3.0 ('I could have danced') built on Feb 9 2012 10:38:07
Библиотека кодирования : libebml v1.2.3 + libmatroska v1.3.0Видео
Идентификатор : 1
Формат : AVC
Формат/Информация : Advanced Video Codec
Профиль формата : [email protected]/* */
Параметр CABAC формата : Да
Параметр ReFrames формата : 9 кадров
Идентификатор кодека : V_MPEG4/ISO/AVC
Продолжительность : 1 ч. 36 м.
Битрейт : 4140 Кбит/сек
Ширина : 1280 пикселей
Высота : 720 пикселей
Соотношение сторон : 16:9
Режим частоты кадров : Постоянный
Частота кадров : 23,976 (24000/1001) кадра/сек
Цветовое пространство : YUV
Субдискретизация насыщенности : 4:2:0
Битовая глубина : 8 бит
Тип развёртки : Прогрессивная
Бит/(Пиксели*Кадры) : 0.187
Размер потока : 2,74 Гбайт (94%)
Библиотека кодирования : x264 core 146 r2538 121396c
Настройки программы : cabac=1 / ref=9 / deblock=1:-3:-3 / analyse=0x3:0x133 / me=umh / subme=11 / psy=1 / psy_rd=1.10:0.15 / mixed_ref=1 / me_range=48 / chroma_me=1 / trellis=2 / 8x8dct=1 / cqm=0 / deadzone=21,11 / fast_pskip=0 / chroma_qp_offset=-3 / threads=8 / lookahead_threads=1 / sliced_threads=0 / nr=0 / decimate=0 / interlaced=0 / bluray_compat=0 / constrained_intra=0 / bframes=9 / b_pyramid=2 / b_adapt=2 / b_bias=0 / direct=3 / weightb=1 / open_gop=0 / weightp=2 / keyint=240 / keyint_min=23 / scenecut=40 / intra_refresh=0 / rc_lookahead=60 / rc=2pass / mbtree=0 / bitrate=4140 / ratetol=1.0 / qcomp=0.60 / qpmin=0 / qpmax=69 / qpstep=4 / cplxblur=20.0 / qblur=0.5 / vbv_maxrate=40000 / vbv_bufsize=50000 / nal_hrd=none / filler=0 / ip_ratio=1.40 / pb_ratio=1.30 / aq=1:1.00
Default : Нет
Forced : Нет
Цветовой диапазон : Limited
Основные цвета : BT.709
Характеристики трансфера : BT.709
Коэффициенты матрицы : BT.709
Statistics Tags Issue : mkvmerge v8.0.0 ('Til The Day That I Die') 64bit 2015-06-20 17:25:17 / mkvmerge v5.3.0 ('I could have danced') built on Feb 9 2012 10:38:07 2016-09-18 04:39:46
FromStats_BitRate : 4139678
FromStats_Duration : 01:36:46.593000000
FromStats_FrameCount : 139219
FromStats_StreamSize : 3004678873Аудио
Идентификатор : 2
Формат : AC-3
Формат/Информация : Audio Coding 3
Расширение режима : CM (complete main)
Параметр Endianness формата : Big
Идентификатор кодека : A_AC3
Продолжительность : 1 ч. 36 м.
Вид битрейта : Постоянный
Битрейт : 192 Кбит/сек
Каналы : 2 канала
Расположение каналов : Front: L R
Частота : 48,0 КГц
Частота кадров : 31,250 кадров/сек (1536 spf)
Метод сжатия : С потерями
Размер потока : 133 Мбайт (4%)
Язык : Russian
Default : Да
Forced : Нет
Statistics Tags Issue : mkvmerge v8.0.0 ('Til The Day That I Die') 64bit 2015-06-20 17:25:17 / mkvmerge v5.3.0 ('I could have danced') built on Feb 9 2012 10:38:07 2016-09-18 04:39:46
FromStats_BitRate : 192000
FromStats_Duration : 01:36:46.688000000
FromStats_FrameCount : 181459
FromStats_StreamSize : 139360512Меню
00:00:00.000 : :00:00:00.000
00:05:24.324 : :00:05:24.324
00:13:54.333 : :00:13:54.333
00:18:23.602 : :00:18:23.602
00:23:30.534 : :00:23:30.534
00:26:40.015 : :00:26:40.015
00:34:54.050 : :00:34:54.050
00:45:39.070 : :00:45:39.070
00:51:35.676 : :00:51:35.676
00:59:30.525 : :00:59:30.525
01:05:29.968 : :01:05:29.968
01:10:50.913 : :01:10:50.913
01:16:05.770 : :01:16:05.770
01:25:41.678 : :01:25:41.678
01:30:13.783 : :01:30:13.783
01:36:15.561 : :01:36:15.561

Скриншот c названием фильма

Скриншоты

Трейлер

Яндекс.Метрика
Рейтинг@Mail.ru