[ Сегодня на трекере фрилич! Идет свободное скачивание без начисления Download ]

Папашина армия / Dad's Army (Оливер Паркер / Oliver Parker) [2016 г., комедия, военный, BDRip, 720p] Dub [Лицензия Blu-Ray CEE]

 

Создавать темы 20-Сен-2016 03:43

-Папашина армия / Dad's Army-- Производство: Великобритания
Год выпуска: 2016 г.
Жанр: комедия, военный
Продолжительность: 01:39:52Мировая премьера: 5 февраля 2016
Перевод: Профессиональный (полное дублирование) [Лицензия Blu-Ray CEE]
Режиссер: Оливер Паркер / Oliver Parker-В ролях: Кэтрин Зета-Джонс, Билл Найи, Майкл Гэмбон, Тоби Джонс, Сара Ланкашир, Марк Гейтисс, Дэниэл Мейс, Элисон Стэдмен, Том Кортни, Блейк Харрисон-Описание: Англия. Вторая мировая война. Журналистка для освещения военных действий отправляется в прибрежный город, где располагается взвод, охраняющий побережье….-
Качество видео: BDRip
Контейнер: MKV
Стандарт разрешения: 720p
Видео кодек: MPEG4 AVC
Аудио кодек: AC3
Видео: 1280x534, 4300 Kbit/s, 23.976 fps
Аудио: 48 kHz, AC3, 5.1, 448 Kbps
Cубтитры: отсутствуют

Media Info

oбщее
Уникальный идентификатор : 233146048675362274159196096404305957256 (0xAF664BB01BA42C26AC5C59CEA8BF5188)
Полное имя : C:\герои 7\Папашина армия\Dad's Army.2016.BDRip.720p.[pirat.ca].mkv
Формат : Matroska
Версия формата : Version 2
Размер файла : 3,28 Гбайт
Продолжительность : 1 ч. 39 м.
Общий поток : 4706 Кбит/сек
Дата кодирования : UTC 2016-09-18 07:43:07
Программа кодирования : mkvmerge v5.3.0 ('I could have danced') built on Feb 9 2012 10:38:07
Библиотека кодирования : libebml v1.2.3 + libmatroska v1.3.0Видео
Идентификатор : 1
Формат : AVC
Формат/Информация : Advanced Video Codec
Профиль формата : [email protected]/* */
Параметр CABAC формата : Да
Параметр ReFrames формата : 12 кадров
Идентификатор кодека : V_MPEG4/ISO/AVC
Продолжительность : 1 ч. 39 м.
Битрейт : 4258 Кбит/сек
Ширина : 1280 пикселей
Высота : 534 пикселя
Соотношение сторон : 2,40:1
Режим частоты кадров : Постоянный
Частота кадров : 23,976 (24000/1001) кадра/сек
Цветовое пространство : YUV
Субдискретизация насыщенности : 4:2:0
Битовая глубина : 8 бит
Тип развёртки : Прогрессивная
Бит/(Пиксели*Кадры) : 0.260
Размер потока : 2,91 Гбайт (88%)
Библиотека кодирования : x264 core 148 r2694 3b70645
Настройки программы : cabac=1 / ref=12 / deblock=1:-3:-3 / analyse=0x3:0x113 / me=umh / subme=11 / psy=1 / psy_rd=1.00:0.00 / mixed_ref=1 / me_range=48 / chroma_me=1 / trellis=2 / 8x8dct=1 / cqm=0 / deadzone=21,11 / fast_pskip=0 / chroma_qp_offset=-2 / threads=8 / lookahead_threads=1 / sliced_threads=0 / nr=0 / decimate=1 / interlaced=0 / bluray_compat=0 / constrained_intra=0 / bframes=8 / b_pyramid=2 / b_adapt=1 / b_bias=0 / direct=1 / weightb=1 / open_gop=0 / weightp=2 / keyint=240 / keyint_min=24 / scenecut=40 / intra_refresh=0 / rc_lookahead=60 / rc=2pass / mbtree=1 / bitrate=4258 / ratetol=1.0 / qcomp=0.60 / qpmin=0 / qpmax=69 / qpstep=4 / cplxblur=20.0 / qblur=0.5 / vbv_maxrate=50000 / vbv_bufsize=25000 / nal_hrd=none / filler=0 / ip_ratio=1.40 / aq=1:1.00
Язык : English
Default : Да
Forced : Нет
Statistics Tags Issue : mkvmerge v8.3.0 ('Over the Horizon') 64bit 2016-09-18 04:27:02 / mkvmerge v5.3.0 ('I could have danced') built on Feb 9 2012 10:38:07 2016-09-18 07:43:07
FromStats_BitRate : 4256088
FromStats_Duration : 01:39:53.613000000
FromStats_FrameCount : 143703
FromStats_StreamSize : 3188668640Аудио
Идентификатор : 2
Формат : AC-3
Формат/Информация : Audio Coding 3
Расширение режима : CM (complete main)
Параметр Endianness формата : Big
Идентификатор кодека : A_AC3
Продолжительность : 1 ч. 39 м.
Вид битрейта : Постоянный
Битрейт : 448 Кбит/сек
Каналы : 6 каналов
Расположение каналов : Front: L C R, Side: L R, LFE
Частота : 48,0 КГц
Частота кадров : 31,250 кадров/сек (1536 spf)
Метод сжатия : С потерями
Размер потока : 320 Мбайт (10%)
Заголовок : Dub-AC3 [Blu-Ray CEE]
Язык : Russian
Default : Нет
Forced : Нет
Statistics Tags Issue : mkvmerge v8.3.0 ('Over the Horizon') 64bit 2016-09-18 04:27:02 / mkvmerge v5.3.0 ('I could have danced') built on Feb 9 2012 10:38:07 2016-09-18 07:43:07
FromStats_BitRate : 448000
FromStats_Duration : 01:39:53.504000000
FromStats_FrameCount : 187297
FromStats_StreamSize : 335636224Меню
00:00:00.000 : en:Chapter 01
00:03:59.906 : en:Chapter 02
00:07:50.220 : en:Chapter 03
00:14:23.071 : en:Chapter 04
00:18:36.574 : en:Chapter 05
00:23:29.992 : en:Chapter 06
00:27:39.449 : en:Chapter 07
00:32:51.261 : en:Chapter 08
00:38:16.586 : en:Chapter 09
00:43:58.177 : en:Chapter 10
00:47:32.433 : en:Chapter 11
00:54:25.721 : en:Chapter 12
00:57:55.305 : en:Chapter 13
01:02:06.806 : en:Chapter 14
01:06:10.884 : en:Chapter 15
01:11:01.549 : en:Chapter 16
01:17:48.247 : en:Chapter 17
01:23:16.783 : en:Chapter 18
01:31:48.294 : en:Chapter 19
01:35:52.705 : en:Chapter 20

Скриншот c названием фильма

Скриншоты

Трейлер

Яндекс.Метрика
Рейтинг@Mail.ru