[ Сегодня на трекере фрилич! Идет свободное скачивание без начисления Download ]

Покровитель / The Protector (Джеймс Гликенхаус / James Glickenhaus) [1985 г., боевик, триллер, BDRip, 1080p] MVO [ТК "Россия"] + DVO [НТВ+]

 

Создавать темы 20-Сен-2016 03:37

-Покровитель / The Protector-- Производство: Гонконг, США
Год выпуска: 1985 г.
Жанр: боевик, триллер
Продолжительность: 01:35:27Мировая премьера: 15 июня 1985
Дата выхода DVD: 5 сентября 2006, «Юнидиджитал Трэйдинг»
Перевод: Профессиональный (многоголосый, закадровый) [ТК "Россия"]
Перевод 2: Профессиональный (двухголосый, закадровый) [НТВ+]
Режиссер: Джеймс Гликенхаус / James Glickenhaus-В ролях: Джеки Чан, Дэнни Айелло, Сэнди Александр, Виктор Арнольд, Ким Басс, Ирен Бритто, Джесси Камерон-Гликенхаус, Аль Серулло, Рой Чяо-Описание: В Нью-Йорке на элитном показе мод похищают дочь влиятельного миллионера. На этой же вечеринке работал охранником полицейский Билли Вонг. Отстраненный от своей работы за излишнюю горячность, лишь он один способен спасти девушку. Отправившись в Гонконг, Билли сразу же попадает в самый центр наркобизнеса…-
Качество видео: BDRip
Контейнер: MKV
Стандарт разрешения: 1080p
Видео кодек: MPEG4 AVC
Аудио кодек: AC3
Видео: 1920x1016, 8888 kbps, 23,976 fps
Аудио: AC-3, 192 kbps, 48 KHz, 2 channels
Аудио #2: AC-3, 192 kbps, 48 KHz, 2 channels
Cубтитры: отсутствуют

Доп. информация

Недовольный качеством фильма и разочарованный в американском кинематографе, Джеки Чан решил сам снять полицейский боевик, чтобы показать американцам, как надо снимать кино. Этим фильмом стала «Полицейская история» (1985).
Во время съёмок фильма Джеки Чан сломал кости пальцев и предплечье левой руки.
На съемках у Джеки Чана начались творческие разногласия с режиссёром Джеймсом Гликенхаусом. Джеки Чана уже поражал тот факт, что Гликенхаус тратил всего четыре дня на съемку батальных сцен, в своих собственных фильмах Джеки Чан тратил не меньше двадцати дней на одну серьезную драку. Даже в тех случаях, когда эпизод получался отвратительным по мнению Джеки, Гликенхаус просто твердил: «Все в порядке. Следующая сцена». Однако Джеки не мог разорвать подписанный на съемку контракт и ему пришлось участвовать в фильме до конца.
Специально для этого фильма продюсеры Дэвид Чан и Андре Морган предложили Джеки Чану изобразить своего персонажа как твердого, серьёзного и жестокого парня в стиле Клинта Иствуда. Джеки Чан с таким решением был не согласен, уверяя, что его поклонникам больше нравится его образ беззаботного и совсем не жестокого героя. Но фильм всё-таки был снят в стиле, предложенном продюсерами.
Джеки Чан был очень недоволен тем фильмом, который в итоге получился, и решил не показывать его своим азиатским зрителям. Вернувшись в Гонконг, он пригласил Дэнни Айелло и Билла Уоллеса и заново как режиссёр переснял всю финальную схватку — сделал ее более продолжительной, динамичной и захватывающей. Также Джеки попросил своего сценариста Эдварда Танга дополнить сценарий новыми эпизодами, позволившими ввести в картину новую героиню, которую сыграла популярная азиатская певица и актриса Салли Е. Были также вырезаны все эротические сцены.
В Нью-Йорке снималась лишь малая часть уличных сцен и отдельные сцены в помещениях. Большая часть фильма снималась в Гонконге, даже открывающая сцена перестрелки в баре была снята в Гонконге.

Рецензия

Практически во всех боевиках в карьере Джеки Чана присутствуют элементы комедии. Но в фильме «Покровитель» эти элементы полностью отсутствуют.По сюжету полицейский Билли Вонг, герой Джеки Чана, и его напарник, в исполнении Дэнни Айелло, должны найти и спасти в Гонконге девушку, дочь миллионера, похищенную в Нью-Йорке людьми наркобарона.Можно сказать, фильм получился хорошим. Но некоторые сцены нужно бы срезать, ибо они выглядят глуповато. А так, других минусов не было замечено.Что касается плюсов, то здесь их достаточно. Это и хорошая игра актеров, и красивые погони, драки, перестрелки, и неплохая режиссура, и замечательная музыка, атмосфера фильма. Поэтому фильм оставил много положительных впечатлений и в сон не тянет. Советую посмотреть фанатам Джеки Чана, а также любителям данного жанра. Думаю, фильм вполне заслуживает оценки…8 из 10

Рецензия

Общее
Уникальный идентификатор : 180643188388147060947749074189219479427 (0x87E69CD1D277763D8862161E16433F83)
Полное имя : F:\Покровитель\Pokrovitelj.1985.BDRip.1080p.[pirat.ca].mkv
Формат : Matroska
Версия формата : Version 2
Размер файла : 6,18 Гбайт
Продолжительность : 1 ч. 35 м.
Общий поток : 9275 Кбит/сек
Дата кодирования : UTC 2016-09-18 11:13:10
Программа кодирования : mkvmerge v5.3.0 ('I could have danced') built on Feb 9 2012 10:38:07
Библиотека кодирования : libebml v1.2.3 + libmatroska v1.3.0Видео
Идентификатор : 1
Формат : AVC
Формат/Информация : Advanced Video Codec
Профиль формата : [email protected]/* */
Параметр CABAC формата : Да
Параметр ReFrames формата : 4 кадра
Идентификатор кодека : V_MPEG4/ISO/AVC
Продолжительность : 1 ч. 35 м.
Битрейт : 8888 Кбит/сек
Ширина : 1920 пикселей
Высота : 1016 пикселей
Соотношение сторон : 1,890
Режим частоты кадров : Постоянный
Частота кадров : 23,976 (24000/1001) кадра/сек
Цветовое пространство : YUV
Субдискретизация насыщенности : 4:2:0
Битовая глубина : 8 бит
Тип развёртки : Прогрессивная
Бит/(Пиксели*Кадры) : 0.190
Размер потока : 5,80 Гбайт (94%)
Заголовок : The Protector (1985)
Библиотека кодирования : x264 core 120 r2164 da19765
Настройки программы : cabac=1 / ref=4 / deblock=1:0:0 / analyse=0x3:0x113 / me=umh / subme=8 / psy=1 / psy_rd=1.00:0.00 / mixed_ref=1 / me_range=16 / chroma_me=1 / trellis=2 / 8x8dct=1 / cqm=0 / deadzone=21,11 / fast_pskip=1 / chroma_qp_offset=-2 / threads=3 / sliced_threads=0 / nr=0 / decimate=1 / interlaced=0 / bluray_compat=0 / constrained_intra=0 / bframes=3 / b_pyramid=2 / b_adapt=2 / b_bias=0 / direct=3 / weightb=1 / open_gop=0 / weightp=2 / keyint=240 / keyint_min=23 / scenecut=40 / intra_refresh=0 / rc_lookahead=50 / rc=2pass / mbtree=1 / bitrate=8888 / ratetol=1.0 / qcomp=0.60 / qpmin=0 / qpmax=69 / qpstep=4 / cplxblur=20.0 / qblur=0.5 / ip_ratio=1.40 / aq=1:1.00
Язык : English
Default : Да
Forced : НетАудио #1
Идентификатор : 2
Формат : AC-3
Формат/Информация : Audio Coding 3
Расширение режима : CM (complete main)
Параметр Endianness формата : Big
Идентификатор кодека : A_AC3
Продолжительность : 1 ч. 35 м.
Вид битрейта : Постоянный
Битрейт : 192 Кбит/сек
Каналы : 2 канала
Расположение каналов : Front: L R
Частота : 48,0 КГц
Частота кадров : 31,250 кадров/сек (1536 spf)
Метод сжатия : С потерями
Размер потока : 131 Мбайт (2%)
Заголовок : Многоголосый (ТК Россия)
Язык : Russian
Default : Нет
Forced : НетАудио #2
Идентификатор : 3
Формат : AC-3
Формат/Информация : Audio Coding 3
Расширение режима : CM (complete main)
Параметр Endianness формата : Big
Идентификатор кодека : A_AC3
Продолжительность : 1 ч. 35 м.
Вид битрейта : Постоянный
Битрейт : 192 Кбит/сек
Каналы : 2 канала
Расположение каналов : Front: L R
Частота : 48,0 КГц
Частота кадров : 31,250 кадров/сек (1536 spf)
Метод сжатия : С потерями
Размер потока : 131 Мбайт (2%)
Заголовок : Двухголосый (НТВ+)
Язык : Russian
Default : Нет
Forced : Нет

Скриншот c названием фильма

Скриншоты

Трейлер

Яндекс.Метрика
Рейтинг@Mail.ru