Бестселлер / Best Seller (Джон Флинн / John Flynn) [1987 г., боевик, триллер, BDRip] DVO [НТВ+]

 

Создавать темы 20-Сен-2016 03:34

-Бестселлер / Best Seller-- Производство: США, Hemdale Films
Год выпуска: 1987 г.
Жанр: боевик, триллер
Продолжительность: 01:35:26Мировая премьера: 25 сентября 1987
Перевод: Профессиональный (двухголосый, закадровый) [НТВ+]
Режиссер: Джон Флинн / John Flynn-В ролях: Джеймс Вудс, Брайан Деннехи, Виктория Теннант, Эллисон Бэлсон, Пол Шенар, Джордж Коу, Энн Питониак, Мэри Карвер, Салли Бойар, Кэтлин Ллойд-Описание: Деннис — бывший полицейский, получивший известность как автор детективных романов. Клив — профессиональный убийца, преступления которого помогли его боссу создать целую финансовую империю.Клив подозревает, что босс распорядился его «убрать», и для того, чтобы выжить и отомстить готов раскрыть все подробности совершенных им преступлений писателю — полицейскому. Деннису этот материал позволит создать новый бестселлер. Но когда работа над книгой близиться к завершению, начинают погибать свидетели.Приступая к написанию будущего бестселлера, Деннис не мог и подозревать, какой опасности он подвергает жизнь своей любовницы и редактора Роберты и дочери Холли…-
Качество видео: BDRip
Контейнер: AVI
Видео кодек: XviD
Аудио кодек: AC3
Видео: 704x384 (1.83:1), 23.976 fps, XviD build 67 ~1785 kbps avg, 0.28 bit/pixel
Аудио: 48 kHz, AC3 Dolby Digital, 2/0 (L,R) ch, ~192 kbps
Cубтитры: отсутствуют

Доп. информация

Одним из прототипов персонажа Деннехи стал реальный полицейский из Лос-Анджелеса Джозеф Вамбо, примерный страж порядка и автор бестселлера.

Рецензия

Незаслуженно преданный забвению фильм, который не был очень хорошим или очень плохим, но обладал внутренней жизнью. Своим стилем он больше напоминает кино 70-х, а его атмосфера неуловимо напоминает Де Пальмовский «Прокол». Ценителям кино и просто зрителям, кто не обходит старые фильмы стороной, я советую обратить внимание на «Бестселлер». Он может понравится вам или нет, но точно заслуживает внимания. Это фильм, про который легко можно говорить, что он хуже того или иного шедевра, но который сравниваешь именно с шедеврами. Судите этот фильм строго, и увидите его худшие стороны, ничего от него не ждите, и фильм покажет вам свои лучшие стороны.Не могу четко выделить жанр этого фильма. В нем есть немного от черного детектива, немного от боевика, а сам он сделан по канонам политического триллера. В нем изрядная доля наивности, свойственная более ранним фильмам. Дуэт Вудса и Деннехи плохо работает, Вудс явно переигрывает Деннехи. И все же в их дуэте возникает что-то завораживающее. То, что гораздо более явно проступает в дуэте Рутгера Хауэра и Томаса Хауэлла в «Попутчике». Когда нечто темное начинает передаваться от одного персонажа другому.Герой Вудса создан таким, чтоб не вызывать симпатии. Деревенщина, пытающийся перенять замашки сливок общества, инструмент, возомнивший себя частью творческого процесса. Обыкновенный убийца, на службе у больших боссов. Но постепенно отношение к персонажу меняется, начинаешь подпадать под его чары, а к концу осознаешь, что при всей простоватости, его герой всегда был чем-то большим, чем просто выскочка.Фильм, который не заслуживает высший оценки и, тем не менее, фильм, который я люблю, при всех его недостатках.8 из 10

Media Info

Общее
Полное имя : J:\Бестселлер\Bestseller.1987.BDRip.[pirat.ca].avi
Формат : AVI
Формат/Информация : Audio Video Interleave
Размер файла : 1,32 Гбайт
Продолжительность : 1 ч. 35 м.
Общий поток : 1987 Кбит/сек
Программа кодирования : VirtualDubMod 1.5.10.3 (build 2550/release)
Библиотека кодирования : VirtualDubMod build 2550/releaseВидео
Идентификатор : 0
Формат : MPEG-4 Visual
Профиль формата : Advanced [email protected]/* */
Параметр BVOP формата : 1
Параметр QPel формата : Нет
Параметр GMC формата : Без точки перехода
Параметр матрицы формата : Выборочная
Идентификатор кодека : XVID
Идентификатор кодека/Подсказка : XviD
Продолжительность : 1 ч. 35 м.
Битрейт : 1786 Кбит/сек
Ширина : 704 пикселя
Высота : 384 пикселя
Соотношение сторон : 1,85:1
Частота кадров : 23,976 (24000/1001) кадра/сек
Цветовое пространство : YUV
Субдискретизация насыщенности : 4:2:0
Битовая глубина : 8 бит
Тип развёртки : Прогрессивная
Метод сжатия : С потерями
Бит/(Пиксели*Кадры) : 0.276
Размер потока : 1,19 Гбайт (90%)
Библиотека кодирования : XviD 67Аудио
Идентификатор : 1
Формат : AC-3
Формат/Информация : Audio Coding 3
Расширение режима : CM (complete main)
Параметр Endianness формата : Big
Идентификатор кодека : 2000
Продолжительность : 1 ч. 35 м.
Вид битрейта : Постоянный
Битрейт : 192 Кбит/сек
Каналы : 2 канала
Расположение каналов : Front: L R
Частота : 48,0 КГц
Частота кадров : 31,250 кадров/сек (1536 spf)
Метод сжатия : С потерями
Размер потока : 131 Мбайт (10%)
Выравнивание : Разделение по промежуткам
Продолжительность промежутка : 42 мс. (1,00 видеокадр)
Время предзагрузки промежутка : 500 мс.

Скриншот c названием фильма

Скриншоты

Трейлер

Яндекс.Метрика
Рейтинг@Mail.ru