Тарзан и дьяволица / Tarzan and the She-Devil (Курт Нойманн / Kurt Neumann) [1953 г., боевик, приключения, DVDRip] MVO

 

Создавать темы 20-Сен-2016 03:30

-Тарзан и дьяволица / Tarzan and the She-Devil-- Производство: США
Год выпуска: 1953 г.
Жанр: боевик, приключения
Продолжительность: 01:15:40Мировая премьера: 18 июня 1953
Перевод: Профессиональный (многоголосый, закадровый)
Режиссер: Курт Нойманн / Kurt Neumann-В ролях: Лекс Баркер, Джойс МакКензи, Рэймонд Бёрр, Моник Ван Воорен, Том Конуэй, Майкл Грэйнджер, Хенри Брэндон, Фред Олдрич, Роберт Байс-Описание: В джунглях появляются люди, истребляющие слонов ради их бивней. Они захватывают мирное племя и заставляют мужчин помогать строить ловушки для слонов. Обманом им удается схватить Тарзана, но даже пытки и истязания не могут заставить его губить своих друзей — животных. Освободившись от пут, Тарзан призывает слонов, и огромное стадо животных обрушивается на браконьеров и их постройки…-
Качество видео: DVDRip
Контейнер: AVI
Видео кодек: XviD
Аудио кодек: AC3
Видео: 656x480 (1.37:1), 23.976 fps, XviD build 50 ~2179 kbps avg, 0.29 bit/pixel
Аудио: 48 kHz, AC3 Dolby Digital, 2/0 (L,R) ch, ~192 kbps
Cубтитры: отсутствуют

Media Info

Общее
Полное имя : J:\Тарзан и дьяволица\Tarzan i djavolica.1953.DVDRip.[pirat.ca].avi
Формат : AVI
Формат/Информация : Audio Video Interleave
Размер файла : 1,26 Гбайт
Продолжительность : 1 ч. 15 м.
Общий поток : 2381 Кбит/сек
Название фильма : Тарзан и дьяволица / Tarzan and the She-Devil (1953)
Программа кодирования : VirtualDubMod 1.5.10.3 (build 2550/release)
Библиотека кодирования : VirtualDubMod build 2550/release
Авторское право : HeDgEhOt®Видео
Идентификатор : 0
Формат : MPEG-4 Visual
Профиль формата : Advanced [email protected]/* */
Параметр BVOP формата : 1
Параметр QPel формата : Нет
Параметр GMC формата : Без точки перехода
Параметр матрицы формата : Выборочная
Идентификатор кодека : XVID
Идентификатор кодека/Подсказка : XviD
Продолжительность : 1 ч. 15 м.
Битрейт : 2180 Кбит/сек
Ширина : 656 пикселей
Высота : 480 пикселей
Соотношение сторон : 4:3
Частота кадров : 23,976 (24000/1001) кадра/сек
Цветовое пространство : YUV
Субдискретизация насыщенности : 4:2:0
Битовая глубина : 8 бит
Тип развёртки : Прогрессивная
Метод сжатия : С потерями
Бит/(Пиксели*Кадры) : 0.289
Размер потока : 1,16 Гбайт (92%)
Библиотека кодирования : XviD 1.2.1 (UTC 2008-12-04)Аудио
Идентификатор : 1
Формат : AC-3
Формат/Информация : Audio Coding 3
Расширение режима : CM (complete main)
Параметр Endianness формата : Big
Идентификатор кодека : 2000
Продолжительность : 1 ч. 15 м.
Вид битрейта : Постоянный
Битрейт : 192 Кбит/сек
Каналы : 2 канала
Расположение каналов : Front: L R
Частота : 48,0 КГц
Частота кадров : 31,250 кадров/сек (1536 spf)
Метод сжатия : С потерями
Размер потока : 104 Мбайт (8%)
Выравнивание : Разделение по промежуткам
Продолжительность промежутка : 42 мс. (1,00 видеокадр)
Время предзагрузки промежутка : 500 мс.
Язык : Русский / English

Скриншот c названием фильма

Скриншоты

Трейлер

Яндекс.Метрика
Рейтинг@Mail.ru