[ Сегодня на трекере фрилич! Идет свободное скачивание без начисления Download ]

Южный Парк / South Park / Сезон: 20 / Серии: 1-1 (10) (Трей Паркер / Trey Parker, ...) [2016 г., мультфильм, комедия, WEB-DLRip, 1080p] DVO (Кубик в Кубе) + Original (Eng) + Sub (Eng) [Обновляемая]

 

Создавать темы 20-Сен-2016 03:19

-Южный Парк / South Park
«Four boys. One f**ked up town»
(20 сезон)
-- Производство: США
Жанр: мультфильм, комедия
Год выпуска: 2016 г.
Продолжительность: 1x ~00:22:00Перевод: Профессиональный (двухголосый, закадровый) [Кубик в Кубе]
Оригинальный аудиопоток: английскийРежиссер: Трей Паркер / Trey Parker, Мэтт Стоун / Matt Stone, Брайан Граден / Brian Graden , ...-В ролях: Трей Паркер, Мэтт Стоун, Мона Маршалл, Айзек Хейз, Эйприл Стюарт, Элиза Шнайдер, Эдриан Бирд, Мэри Кэй Бергман, Дженнифер Хауэлл, Кайл Маккаллок, ...-Описание: Южный Парк / South Park — американский мультсериал, созданный Мэттом Стоуном и Треем Паркером. Иногда название переводится также как «Саут-Парк» или «Саус-Парк». Выпускается кабельным телеканалом Comedy Central с 1997 года. Основу сюжета составляют приключения четырёх мальчиков и их друзей, живущих в маленьком городке Саут-Парк, штат Колорадо. Сериал высмеивает недостатки американской культуры и текущие мировые события, а также подвергает критике множество глубоких убеждений и табу посредством пародии и чёрного юмора. «Южный Парк» выходит поздно вечером и позиционируется как мультфильм для взрослых.-
Качество видео: WEB-DLRip
Контейнер: MKV
Стандарт разрешения: 1080p
Видео кодек: H.264/AVC
Аудио кодек: AC3
Видео: 1920x1080 (16:9), 23.976 fps, ~2300 Kbps avg
Аудио: Russian: 48 kHz, AC3, 2.0 (L,R) ch, ~192.00 kbps avg |Двухголосый закадровый, Кубик в Кубе| - (присутствует ненормативная лексика)
Аудио #2: English: 48 kHz, AC3, 2.0 (L,R) ch, ~192.00 kbps avgCубтитры: английские

Список серий

01: Member Berries

Media Info

Код:
Format                      : Matroska
Format version              : Version 4 / Version 2
File size                   : 424 MiB
Duration                    : 22mn 10s
Overall bit rate mode       : Variable
Overall bit rate            : 2 675 Kbps
Movie name                  : South Park 20x01 (Member Berries)
Encoded date                : UTC 2016-09-17 21:46:34
Writing application         : mkvmerge v6.7.0 ('Back to the Ground') 64bit built on Jan  8 2014 15:10:52
Writing library             : libebml v1.3.0 + libmatroska v1.4.1Video
ID                          : 1
Format                      : AVC
Format/Info                 : Advanced Video Codec
Format profile              : [email protected]/*  */
Format settings, CABAC      : Yes
Format settings, ReFrames   : 4 frames
Codec ID                    : V_MPEG4/ISO/AVC
Duration                    : 22mn 10s
Bit rate mode               : Variable
Bit rate                    : 2 238 Kbps
Maximum bit rate            : 15.0 Mbps
Width                       : 1 920 pixels
Height                      : 1 080 pixels
Display aspect ratio        : 16:9
Frame rate mode             : Constant
Frame rate                  : 23.976 fps
Color space                 : YUV
Chroma subsampling          : 4:2:0
Bit depth                   : 8 bits
Scan type                   : Progressive
Bits/(Pixel*Frame)          : 0.045
Stream size                 : 355 MiB (84%)
Title                       : South.Park.S20E01.Member.Berries.Uncensored.1080p
Language                    : English
Default                     : Yes
Forced                      : No
Color primaries             : BT.709
Transfer characteristics    : BT.709
Matrix coefficients         : BT.709
Color range                 : LimitedAudio #1
ID                          : 2
Format                      : AC-3
Format/Info                 : Audio Coding 3
Mode extension              : CM (complete main)
Format settings, Endianness : Big
Codec ID                    : A_AC3
Duration                    : 22mn 10s
Bit rate mode               : Constant
Bit rate                    : 192 Kbps
Channel(s)                  : 2 channels
Channel positions           : Front: L R
Sampling rate               : 48.0 KHz
Bit depth                   : 16 bits
Compression mode            : Lossy
Stream size                 : 30.5 MiB (7%)
Title                       : KvK 2.0
Language                    : Russian
Default                     : Yes
Forced                      : NoAudio #2
ID                          : 3
Format                      : AC-3
Format/Info                 : Audio Coding 3
Mode extension              : CM (complete main)
Format settings, Endianness : Big
Codec ID                    : A_AC3
Duration                    : 22mn 10s
Bit rate mode               : Constant
Bit rate                    : 192 Kbps
Channel(s)                  : 2 channels
Channel positions           : Front: L R
Sampling rate               : 48.0 KHz
Bit depth                   : 16 bits
Compression mode            : Lossy
Stream size                 : 30.5 MiB (7%)
Title                       : English 2.0
Language                    : English
Default                     : No
Forced                      : NoText
ID                          : 4
Format                      : UTF-8
Codec ID                    : S_TEXT/UTF8
Codec ID/Info               : UTF-8 Plain Text
Title                       : Eng sub
Language                    : English
Default                     : No
Forced                      : No

Скриншоты

Яндекс.Метрика
Рейтинг@Mail.ru