(Pop)Валерий Меладзе - Антология (1995-2015) (7CD) - 2015 [FLAC, image +.cue, lossless]

 

Создавать темы 18-Сен-2016 11:32

-Валерий Меладзе - Антология (1995-2015)--
Год издания: 2015
Страна: Russia
Жанр: Pop
Продолжительность: 05:46:14-Лейбл издания: Мистерия Звука
Страна-выпуска диска: Russia
Номер по каталогу: CD-M+370-2 - CD-M+376-2-Формат: FLAC
Битрейт аудио: Lossless
Тип рипа: image +.cue
Наличие сканов в содержимом раздачи: да
-

Трэклист

1995 - Антология I. Сэра / 01:18:05


Лейбл издания: Мистерия Звука
Страна-выпуска диска: Russia
Номер по каталогу: CD-M+370-2
01.Не тревожь мне душу, скрипка(4:17)
02.Сэра(3:53)
03.Лимбо(4:03)
04.Ночь накануне Рождества(4:59)
05.Холодное средце(3:36)
06.Разведи огонь(4:02)
07.Посредине лета(3:32)
08.Золотистый локон(3:33)
09.Валерия(4:49)
10.Ты ещё жив(3:54)
11.Балерина(4:52)
12.Колокол далей небесных(4:40)
13.Три розы(5:10)
14.Слушай ветер(4:38)
15.Один день(4:41)
16.Поднебесные реки(4:43)
17.Женщина в белом(4:55)
18.Так и скажи(3:49)

Лог создания рипа

Exact Audio Copy V1.1 from 23. June 2015
EAC extraction logfile from 24. May 2016, 2:39
Валерий Меладзе / Антология I. Сэра
Used drive  : PLEXTOR DVDR   PX-760A   Adapter: 1  ID: 1
Read mode               : Secure
Utilize accurate stream : Yes
Defeat audio cache      : Yes
Make use of C2 pointers : No
Read offset correction                      : 30
Overread into Lead-In and Lead-Out          : No
Fill up missing offset samples with silence : Yes
Delete leading and trailing silent blocks   : No
Null samples used in CRC calculations       : Yes
Used interface                              : Native Win32 interface for Win NT & 2000
Used output format : Internal WAV Routines
Sample format      : 44.100 Hz; 16 Bit; Stereo
TOC of the extracted CD
     Track |   Start  |  Length  | Start sector | End sector
    ---------------------------------------------------------
        1  |  0:00.00 |  4:17.27 |         0    |    19301
        2  |  4:17.27 |  3:52.70 |     19302    |    36771
        3  |  8:10.22 |  4:02.70 |     36772    |    54991
        4  | 12:13.17 |  4:58.70 |     54992    |    77411
        5  | 17:12.12 |  3:35.69 |     77412    |    93605
        6  | 20:48.06 |  4:01.70 |     93606    |   111750
        7  | 24:50.01 |  3:31.69 |    111751    |   127644
        8  | 28:21.70 |  3:32.69 |    127645    |   143613
        9  | 31:54.64 |  4:48.70 |    143614    |   165283
       10  | 36:43.59 |  3:53.69 |    165284    |   182827
       11  | 40:37.53 |  4:51.70 |    182828    |   204722
       12  | 45:29.48 |  4:39.69 |    204723    |   225716
       13  | 50:09.42 |  5:09.70 |    225717    |   248961
       14  | 55:19.37 |  4:37.70 |    248962    |   269806
       15  | 59:57.32 |  4:40.71 |    269807    |   290877
       16  | 64:38.28 |  4:42.69 |    290878    |   312096
       17  | 69:21.22 |  4:54.69 |    312097    |   334215
       18  | 74:16.16 |  3:48.53 |    334216    |   351368
Range status and errors
Selected range
     Filename F:\FLAC (bruk67)\Валерий Меладзе  - Антология (1995-2015)\1995 - Антология I. Сэра\Валерий Меладзе - Антология I. Сэра.wav
     Peak level 100.0 %
     Extraction speed 2.0 X
     Range quality 100.0 %
     Test CRC 8EC60EC9
     Copy CRC 8EC60EC9
     Copy OK
No errors occurred
AccurateRip summary
Track  1  not present in database
Track  2  not present in database
Track  3  not present in database
Track  4  not present in database
Track  5  not present in database
Track  6  not present in database
Track  7  not present in database
Track  8  not present in database
Track  9  not present in database
Track 10  not present in database
Track 11  not present in database
Track 12  not present in database
Track 13  not present in database
Track 14  not present in database
Track 15  not present in database
Track 16  not present in database
Track 17  not present in database
Track 18  not present in database
None of the tracks are present in the AccurateRip database
End of status report
---- CUETools DB Plugin V2.1.6
[CTDB TOCID: d9RZ1Q3sL4O14Y0c_e1YMAwQPfk-] found
Submit result: d9RZ1Q3sL4O14Y0c_e1YMAwQPfk- has been confirmed
Track | CTDB Status
  1   | (1/1) Accurately ripped
  2   | (1/1) Accurately ripped
  3   | (1/1) Accurately ripped
  4   | (1/1) Accurately ripped
  5   | (1/1) Accurately ripped
  6   | (1/1) Accurately ripped
  7   | (1/1) Accurately ripped
  8   | (1/1) Accurately ripped
  9   | (1/1) Accurately ripped
10   | (1/1) Accurately ripped
11   | (1/1) Accurately ripped
12   | (1/1) Accurately ripped
13   | (1/1) Accurately ripped
14   | (1/1) Accurately ripped
15   | (1/1) Accurately ripped
16   | (1/1) Accurately ripped
17   | (1/1) Accurately ripped
18   | (1/1) Accurately ripped

Индексная карта (non-compilant .cue)

REM GENRE Pop
REM DATE 1995
REM DISCID F2124C12
REM COMMENT "ExactAudioCopy v1.1"
PERFORMER "Валерий Меладзе"
TITLE "Антология I. Сэра"
FILE "Валерий Меладзе - Антология I. Сэра.wav" WAVE
  TRACK 01 AUDIO
    TITLE "Не тревожь мне душу, скрипка"
    PERFORMER "Валерий Меладзе"
    INDEX 01 00:00:00
  TRACK 02 AUDIO
    TITLE "Сэра"
    PERFORMER "Валерий Меладзе"
    INDEX 01 04:17:27
  TRACK 03 AUDIO
    TITLE "Лимбо"
    PERFORMER "Валерий Меладзе"
    INDEX 01 08:10:22
  TRACK 04 AUDIO
    TITLE "Ночь накануне Рождества"
    PERFORMER "Валерий Меладзе"
    INDEX 01 12:13:17
  TRACK 05 AUDIO
    TITLE "Холодное средце"
    PERFORMER "Валерий Меладзе"
    INDEX 01 17:12:12
  TRACK 06 AUDIO
    TITLE "Разведи огонь"
    PERFORMER "Валерий Меладзе"
    INDEX 01 20:48:06
  TRACK 07 AUDIO
    TITLE "Посредине лета"
    PERFORMER "Валерий Меладзе"
    INDEX 01 24:50:01
  TRACK 08 AUDIO
    TITLE "Золотистый локон"
    PERFORMER "Валерий Меладзе"
    INDEX 01 28:21:70
  TRACK 09 AUDIO
    TITLE "Валерия"
    PERFORMER "Валерий Меладзе"
    INDEX 01 31:54:64
  TRACK 10 AUDIO
    TITLE "Ты ещё жив"
    PERFORMER "Валерий Меладзе"
    INDEX 01 36:43:59
  TRACK 11 AUDIO
    TITLE "Балерина"
    PERFORMER "Валерий Меладзе"
    INDEX 01 40:37:53
  TRACK 12 AUDIO
    TITLE "Колокол далей небесных"
    PERFORMER "Валерий Меладзе"
    INDEX 01 45:29:48
  TRACK 13 AUDIO
    TITLE "Три розы"
    PERFORMER "Валерий Меладзе"
    INDEX 01 50:09:42
  TRACK 14 AUDIO
    TITLE "Слушай ветер"
    PERFORMER "Валерий Меладзе"
    INDEX 01 55:19:37
  TRACK 15 AUDIO
    TITLE "Один день"
    PERFORMER "Валерий Меладзе"
    INDEX 01 59:57:32
  TRACK 16 AUDIO
    TITLE "Поднебесные реки"
    PERFORMER "Валерий Меладзе"
    INDEX 01 64:38:28
  TRACK 17 AUDIO
    TITLE "Женщина в белом"
    PERFORMER "Валерий Меладзе"
    INDEX 01 69:21:22
  TRACK 18 AUDIO
    TITLE "Так и скажи"
    PERFORMER "Валерий Меладзе"
    INDEX 01 74:16:16

1996 - Антология II. Последний романтик / 00:41:09


Лейбл издания: Мистерия Звука
Страна-выпуска диска: Russia
Номер по каталогу: CD-M+371-2
01.Песня о студенте(3:50)
02.Ты пришла из ниоткуда(4:27)
03.Рыбак и рыбка(4:06)
04.Pека времени(4:24)
05.Живой(4:28)
06.Актриса(4:09)
07.Как ты красива сегодня(4:00)
08.Девушки из высшего общества(3:24)
09.Странница осень(4:18)
10.Вера(4:03)

Лог создания рипа

Exact Audio Copy V1.1 from 23. June 2015
EAC extraction logfile from 24. May 2016, 3:49
Валерий Меладзе / Антология II. Последний романтик
Used drive  : PLEXTOR DVDR   PX-760A   Adapter: 1  ID: 1
Read mode               : Secure
Utilize accurate stream : Yes
Defeat audio cache      : Yes
Make use of C2 pointers : No
Read offset correction                      : 30
Overread into Lead-In and Lead-Out          : No
Fill up missing offset samples with silence : Yes
Delete leading and trailing silent blocks   : No
Null samples used in CRC calculations       : Yes
Used interface                              : Native Win32 interface for Win NT & 2000
Used output format : Internal WAV Routines
Sample format      : 44.100 Hz; 16 Bit; Stereo
TOC of the extracted CD
     Track |   Start  |  Length  | Start sector | End sector
    ---------------------------------------------------------
        1  |  0:00.00 |  3:50.18 |         0    |    17267
        2  |  3:50.18 |  4:26.70 |     17268    |    37287
        3  |  8:17.13 |  4:05.51 |     37288    |    55713
        4  | 12:22.64 |  4:23.72 |     55714    |    75510
        5  | 16:46.61 |  4:27.62 |     75511    |    95597
        6  | 21:14.48 |  4:09.17 |     95598    |   114289
        7  | 25:23.65 |  3:59.66 |    114290    |   132280
        8  | 29:23.56 |  3:23.72 |    132281    |   147577
        9  | 32:47.53 |  4:17.48 |    147578    |   166900
       10  | 37:05.26 |  4:03.37 |    166901    |   185162
Range status and errors
Selected range
     Filename F:\FLAC (bruk67)\Валерий Меладзе  - Антология (1995-2015)\1996 - Антология II. Последний романтик\Валерий Меладзе - Антология II. Последний романтик.wav
     Peak level 100.0 %
     Extraction speed 1.8 X
     Range quality 100.0 %
     Test CRC 2C99016A
     Copy CRC 2C99016A
     Copy OK
No errors occurred
AccurateRip summary
Track  1  not present in database
Track  2  not present in database
Track  3  not present in database
Track  4  not present in database
Track  5  not present in database
Track  6  not present in database
Track  7  not present in database
Track  8  not present in database
Track  9  not present in database
Track 10  not present in database
None of the tracks are present in the AccurateRip database
End of status report
---- CUETools DB Plugin V2.1.6
[CTDB TOCID: o.CTgfngnzYZ0IF785XaMh_L1ic-] found
Submit result: o.CTgfngnzYZ0IF785XaMh_L1ic- has been confirmed
Track | CTDB Status
  1   | (1/1) Accurately ripped
  2   | (1/1) Accurately ripped
  3   | (1/1) Accurately ripped
  4   | (1/1) Accurately ripped
  5   | (1/1) Accurately ripped
  6   | (1/1) Accurately ripped
  7   | (1/1) Accurately ripped
  8   | (1/1) Accurately ripped
  9   | (1/1) Accurately ripped
10   | (1/1) Accurately ripped

Индексная карта (non-compilant .cue)

REM GENRE Pop
REM DATE 1996
REM DISCID 8D09A40A
REM COMMENT "ExactAudioCopy v1.1"
PERFORMER "Валерий Меладзе"
TITLE "Антология II. Последний романтик"
FILE "Валерий Меладзе - Антология II. Последний романтик.wav" WAVE
  TRACK 01 AUDIO
    TITLE "Песня о студенте"
    PERFORMER "Валерий Меладзе"
    INDEX 01 00:00:00
  TRACK 02 AUDIO
    TITLE "Ты пришла из ниоткуда"
    PERFORMER "Валерий Меладзе"
    INDEX 01 03:50:18
  TRACK 03 AUDIO
    TITLE "Рыбак и рыбка"
    PERFORMER "Валерий Меладзе"
    INDEX 01 08:17:13
  TRACK 04 AUDIO
    TITLE "Река времени"
    PERFORMER "Валерий Меладзе"
    INDEX 01 12:22:64
  TRACK 05 AUDIO
    TITLE "Живой"
    PERFORMER "Валерий Меладзе"
    INDEX 01 16:46:61
  TRACK 06 AUDIO
    TITLE "Актриса"
    PERFORMER "Валерий Меладзе"
    INDEX 01 21:14:48
  TRACK 07 AUDIO
    TITLE "Как ты красива сегодня"
    PERFORMER "Валерий Меладзе"
    INDEX 01 25:23:65
  TRACK 08 AUDIO
    TITLE "Девушки из высшего общества"
    PERFORMER "Валерий Меладзе"
    INDEX 01 29:23:56
  TRACK 09 AUDIO
    TITLE "Странница осень"
    PERFORMER "Валерий Меладзе"
    INDEX 01 32:47:53
  TRACK 10 AUDIO
    TITLE "Вера"
    PERFORMER "Валерий Меладзе"
    INDEX 01 37:05:26

1998 - Антология III. Самба белого мотылька / 00:39:58


Лейбл издания: Мистерия Звука
Страна-выпуска диска: Russia
Номер по каталогу: CD-M+372-2
01.Самба белого мотылька(4:01)
02.Тая(4:42)
03.Чёрная кошка(3:50)
04.Маменька(3:32)
05.А всё могло быть иначе(3:48)
06.Говорила ты(3:16)
07.Красавицы могут всё(3:30)
08.Когда заходит солнце(4:07)
09.Латинамерика(4:11)
10.Старый город(5:02)

Лог создания рипа

Exact Audio Copy V1.1 from 23. June 2015
EAC extraction logfile from 24. May 2016, 5:39
Валерий Меладзе / Антология III. Самба белого мотылька
Used drive  : PIONEER DVD-RW  DVR-212   Adapter: 1  ID: 2
Read mode               : Secure
Utilize accurate stream : Yes
Defeat audio cache      : Yes
Make use of C2 pointers : No
Read offset correction                      : 48
Overread into Lead-In and Lead-Out          : No
Fill up missing offset samples with silence : Yes
Delete leading and trailing silent blocks   : No
Null samples used in CRC calculations       : Yes
Used interface                              : Native Win32 interface for Win NT & 2000
Used output format : Internal WAV Routines
Sample format      : 44.100 Hz; 16 Bit; Stereo
TOC of the extracted CD
     Track |   Start  |  Length  | Start sector | End sector
    ---------------------------------------------------------
        1  |  0:00.00 |  4:00.56 |         0    |    18055
        2  |  4:00.56 |  4:42.03 |     18056    |    39208
        3  |  8:42.59 |  3:49.63 |     39209    |    56446
        4  | 12:32.47 |  3:32.04 |     56447    |    72350
        5  | 16:04.51 |  3:48.33 |     72351    |    89483
        6  | 19:53.09 |  3:15.45 |     89484    |   104153
        7  | 23:08.54 |  3:29.51 |    104154    |   119879
        8  | 26:38.30 |  4:07.34 |    119880    |   138438
        9  | 30:45.64 |  4:10.40 |    138439    |   157228
       10  | 34:56.29 |  5:01.46 |    157229    |   179849
Range status and errors
Selected range
     Filename F:\FLAC (bruk67)\Валерий Меладзе  - Антология (1995-2015)\1998 - Антология III. Самба белого мотылька\Валерий Меладзе - Антология III. Самба белого мотылька.wav
     Peak level 100.0 %
     Extraction speed 6.8 X
     Range quality 99.9 %
     Test CRC 6B0AEABD
     Copy CRC 6B0AEABD
     Copy OK
No errors occurred
AccurateRip summary
Track  1  not present in database
Track  2  not present in database
Track  3  not present in database
Track  4  not present in database
Track  5  not present in database
Track  6  not present in database
Track  7  not present in database
Track  8  not present in database
Track  9  not present in database
Track 10  not present in database
None of the tracks are present in the AccurateRip database
End of status report
---- CUETools DB Plugin V2.1.6
[CTDB TOCID: fzHKkXlKsgLSLhXuQqTQDw.6Ojk-] found
Submit result: fzHKkXlKsgLSLhXuQqTQDw.6Ojk- has been confirmed
Track | CTDB Status
  1   | (1/1) Accurately ripped
  2   | (1/1) Accurately ripped
  3   | (1/1) Accurately ripped
  4   | (1/1) Accurately ripped
  5   | (1/1) Accurately ripped
  6   | (1/1) Accurately ripped
  7   | (1/1) Accurately ripped
  8   | (1/1) Accurately ripped
  9   | (1/1) Accurately ripped
10   | (1/1) Accurately ripped

Индексная карта (non-compilant .cue)

REM GENRE Pop
REM DATE 1998
REM DISCID 85095E0A
REM COMMENT "ExactAudioCopy v1.1"
PERFORMER "Валерий Меладзе"
TITLE "Антология III. Самба белого мотылька"
FILE "Валерий Меладзе - Антология III. Самба белого мотылька.wav" WAVE
  TRACK 01 AUDIO
    TITLE "Самба белого мотылька"
    PERFORMER "Валерий Меладзе"
    INDEX 01 00:00:00
  TRACK 02 AUDIO
    TITLE "Тая"
    PERFORMER "Валерий Меладзе"
    INDEX 01 04:00:56
  TRACK 03 AUDIO
    TITLE "Чёрная кошка"
    PERFORMER "Валерий Меладзе"
    INDEX 01 08:42:59
  TRACK 04 AUDIO
    TITLE "Маменька"
    PERFORMER "Валерий Меладзе"
    INDEX 01 12:32:47
  TRACK 05 AUDIO
    TITLE "А всё могло быть иначе"
    PERFORMER "Валерий Меладзе"
    INDEX 01 16:04:51
  TRACK 06 AUDIO
    TITLE "Говорила ты"
    PERFORMER "Валерий Меладзе"
    INDEX 01 19:53:09
  TRACK 07 AUDIO
    TITLE "Красавицы могут всё"
    PERFORMER "Валерий Меладзе"
    INDEX 01 23:08:54
  TRACK 08 AUDIO
    TITLE "Когда заходит солнце"
    PERFORMER "Валерий Меладзе"
    INDEX 01 26:38:30
  TRACK 09 AUDIO
    TITLE "Латинамерика"
    PERFORMER "Валерий Меладзе"
    INDEX 01 30:45:64
  TRACK 10 AUDIO
    TITLE "Старый город"
    PERFORMER "Валерий Меладзе"
    INDEX 01 34:56:29

1999 - Антология IV. Всё так и было / 00:40:01


Лейбл издания: Мистерия Звука
Страна-выпуска диска: Russia
Номер по каталогу: CD-M+373-2
01.Мечта(3:01)
02.Всё так и было(3:27)
03.Красиво(4:44)
04.Рассветная(3:40)
05.Шоу-бизнес(3:29)
06.Беги(4:00)
07.Ночная лилия(3:56)
08.Королева автострады(4:21)
09.2000(3:20)
10.Незнайка на Луне(2:10)
11.Береги себя, мой ангел(3:52)

Лог создания рипа

Exact Audio Copy V1.1 from 23. June 2015
EAC extraction logfile from 24. May 2016, 6:03
Валерий Меладзе / Антология IV. Всё так и было
Used drive  : PIONEER DVD-RW  DVR-212   Adapter: 1  ID: 2
Read mode               : Secure
Utilize accurate stream : Yes
Defeat audio cache      : Yes
Make use of C2 pointers : No
Read offset correction                      : 48
Overread into Lead-In and Lead-Out          : No
Fill up missing offset samples with silence : Yes
Delete leading and trailing silent blocks   : No
Null samples used in CRC calculations       : Yes
Used interface                              : Native Win32 interface for Win NT & 2000
Used output format : Internal WAV Routines
Sample format      : 44.100 Hz; 16 Bit; Stereo
TOC of the extracted CD
     Track |   Start  |  Length  | Start sector | End sector
    ---------------------------------------------------------
        1  |  0:00.00 |  3:01.04 |         0    |    13578
        2  |  3:01.04 |  3:27.25 |     13579    |    29128
        3  |  6:28.29 |  4:43.59 |     29129    |    50412
        4  | 11:12.13 |  3:40.06 |     50413    |    66918
        5  | 14:52.19 |  3:29.33 |     66919    |    82626
        6  | 18:21.52 |  3:59.48 |     82627    |   100599
        7  | 22:21.25 |  3:56.34 |    100600    |   118333
        8  | 26:17.59 |  4:21.36 |    118334    |   137944
        9  | 30:39.20 |  3:19.39 |    137945    |   152908
       10  | 33:58.59 |  2:09.50 |    152909    |   162633
       11  | 36:08.34 |  3:52.06 |    162634    |   180039
Range status and errors
Selected range
     Filename F:\FLAC (bruk67)\Валерий Меладзе  - Антология (1995-2015)\1999 -  Антология IV. Всё так и было\Валерий Меладзе - Антология IV. Всё так и было.wav
     Peak level 100.0 %
     Extraction speed 4.1 X
     Range quality 100.0 %
     Test CRC 63606F1B
     Copy CRC 63606F1B
     Copy OK
No errors occurred
AccurateRip summary
Track  1  not present in database
Track  2  not present in database
Track  3  not present in database
Track  4  not present in database
Track  5  not present in database
Track  6  not present in database
Track  7  not present in database
Track  8  not present in database
Track  9  not present in database
Track 10  not present in database
Track 11  not present in database
None of the tracks are present in the AccurateRip database
End of status report
---- CUETools DB Plugin V2.1.6
[CTDB TOCID: BggJqURs1KTiDxAohEIz0JW4zjc-] found
Submit result: BggJqURs1KTiDxAohEIz0JW4zjc- has been confirmed
Track | CTDB Status
  1   | (1/1) Accurately ripped
  2   | (1/1) Accurately ripped
  3   | (1/1) Accurately ripped
  4   | (1/1) Accurately ripped
  5   | (1/1) Accurately ripped
  6   | (1/1) Accurately ripped
  7   | (1/1) Accurately ripped
  8   | (1/1) Accurately ripped
  9   | (1/1) Accurately ripped
10   | (1/1) Accurately ripped
11   | (1/1) Accurately ripped

Индексная карта (non-compilant .cue)

REM GENRE Pop
REM DATE 1999
REM DISCID 8409600B
REM COMMENT "ExactAudioCopy v1.1"
PERFORMER "Валерий Меладзе"
TITLE "Антология IV. Всё так и было"
FILE "Валерий Меладзе - Антология IV. Всё так и было.wav" WAVE
  TRACK 01 AUDIO
    TITLE "Мечта"
    PERFORMER "Валерий Меладзе"
    INDEX 01 00:00:00
  TRACK 02 AUDIO
    TITLE "Всё так и было"
    PERFORMER "Валерий Меладзе"
    INDEX 01 03:01:04
  TRACK 03 AUDIO
    TITLE "Красиво"
    PERFORMER "Валерий Меладзе"
    INDEX 01 06:28:29
  TRACK 04 AUDIO
    TITLE "Рассветная"
    PERFORMER "Валерий Меладзе"
    INDEX 01 11:12:13
  TRACK 05 AUDIO
    TITLE "Шоу-бизнес"
    PERFORMER "Валерий Меладзе"
    INDEX 01 14:52:19
  TRACK 06 AUDIO
    TITLE "Беги"
    PERFORMER "Валерий Меладзе"
    INDEX 01 18:21:52
  TRACK 07 AUDIO
    TITLE "Ночная лилия"
    PERFORMER "Валерий Меладзе"
    INDEX 01 22:21:25
  TRACK 08 AUDIO
    TITLE "Королева автострады"
    PERFORMER "Валерий Меладзе"
    INDEX 01 26:17:59
  TRACK 09 AUDIO
    TITLE "2000"
    PERFORMER "Валерий Меладзе"
    INDEX 01 30:39:20
  TRACK 10 AUDIO
    TITLE "Незнайка на Луне"
    PERFORMER "Валерий Меладзе"
    INDEX 01 33:58:59
  TRACK 11 AUDIO
    TITLE "Береги себя, мой ангел"
    PERFORMER "Валерий Меладзе"
    INDEX 01 36:08:34

2003 - Антология V. Нега / 00:57:53


Лейбл издания: Мистерия Звука
Страна-выпуска диска: Russia
Номер по каталогу: CD-M+374-2
01.Се ля ви(3:55)
02.Осколки лета(3:41)
03.Переменится ветер(3:44)
04.Я не могу без тебя(4:09)
05.Магдалина(3:35)
06.Спрячем слёзы от посторонних(3:47)
07.Не уходи(4:05)
08.Лили-анаконда(3:26)
09.В двух шагах от рая(4:06)
10.Сделай это прямо сейчас(3:39)
11.Текила-любовь(3:42)
12.Комедиант(4:15)
13.Чего не могут люди (Из К/Ф 'Золушка')(3:37)
14.Океан и три реки (с группой ВИА Гра)(3:41)
15.Притяженья больше нет (с группой ВИА Гра)(4:31)

Лог создания рипа

Exact Audio Copy V1.1 from 23. June 2015
EAC extraction logfile from 24. May 2016, 13:00
Валерий Меладзе / Антология V. Нега
Used drive  : PIONEER DVD-RW  DVR-212   Adapter: 1  ID: 2
Read mode               : Secure
Utilize accurate stream : Yes
Defeat audio cache      : Yes
Make use of C2 pointers : No
Read offset correction                      : 48
Overread into Lead-In and Lead-Out          : No
Fill up missing offset samples with silence : Yes
Delete leading and trailing silent blocks   : No
Null samples used in CRC calculations       : Yes
Used interface                              : Native Win32 interface for Win NT & 2000
Used output format : Internal WAV Routines
Sample format      : 44.100 Hz; 16 Bit; Stereo
TOC of the extracted CD
     Track |   Start  |  Length  | Start sector | End sector
    ---------------------------------------------------------
        1  |  0:00.00 |  3:54.73 |         0    |    17622
        2  |  3:54.73 |  3:40.51 |     17623    |    34173
        3  |  7:35.49 |  3:43.47 |     34174    |    50945
        4  | 11:19.21 |  4:09.21 |     50946    |    69641
        5  | 15:28.42 |  3:35.24 |     69642    |    85790
        6  | 19:03.66 |  3:46.43 |     85791    |   102783
        7  | 22:50.34 |  4:05.13 |    102784    |   121171
        8  | 26:55.47 |  3:25.47 |    121172    |   136593
        9  | 30:21.19 |  4:06.32 |    136594    |   155075
       10  | 34:27.51 |  3:39.32 |    155076    |   171532
       11  | 38:07.08 |  3:42.22 |    171533    |   188204
       12  | 41:49.30 |  4:14.46 |    188205    |   207300
       13  | 46:04.01 |  3:37.07 |    207301    |   223582
       14  | 49:41.08 |  3:40.47 |    223583    |   240129
       15  | 53:21.55 |  4:31.16 |    240130    |   260470
Range status and errors
Selected range
     Filename F:\FLAC (bruk67)\Валерий Меладзе  - Антология (1995-2015)\2003 - Антология V. Нега\Валерий Меладзе - Антология V. Нега.wav
     Peak level 100.0 %
     Extraction speed 2.1 X
     Range quality 100.0 %
     Test CRC 5B66ED13
     Copy CRC 5B66ED13
     Copy OK
No errors occurred
AccurateRip summary
Track  1  not present in database
Track  2  not present in database
Track  3  not present in database
Track  4  not present in database
Track  5  not present in database
Track  6  not present in database
Track  7  not present in database
Track  8  not present in database
Track  9  not present in database
Track 10  not present in database
Track 11  not present in database
Track 12  not present in database
Track 13  not present in database
Track 14  not present in database
Track 15  not present in database
None of the tracks are present in the AccurateRip database
End of status report
---- CUETools DB Plugin V2.1.6
[CTDB TOCID: D.i4UgLz848uC5OBxcaO6gzaMv4-] found
Submit result: D.i4UgLz848uC5OBxcaO6gzaMv4- has been confirmed
Track | CTDB Status
  1   | (1/1) Accurately ripped
  2   | (1/1) Accurately ripped
  3   | (1/1) Accurately ripped
  4   | (1/1) Accurately ripped
  5   | (1/1) Accurately ripped
  6   | (1/1) Accurately ripped
  7   | (1/1) Accurately ripped
  8   | (1/1) Accurately ripped
  9   | (1/1) Accurately ripped
10   | (1/1) Accurately ripped
11   | (1/1) Accurately ripped
12   | (1/1) Accurately ripped
13   | (1/1) Accurately ripped
14   | (1/1) Accurately ripped
15   | (1/1) Accurately ripped

Индексная карта (non-compilant .cue)

REM GENRE Pop
REM DATE 2003
REM DISCID CF0D900F
REM COMMENT "ExactAudioCopy v1.1"
PERFORMER "Валерий Меладзе"
TITLE "Антология V. Нега"
FILE "Валерий Меладзе - Антология V. Нега.wav" WAVE
  TRACK 01 AUDIO
    TITLE "Се ля ви"
    PERFORMER "Валерий Меладзе"
    INDEX 01 00:00:00
  TRACK 02 AUDIO
    TITLE "Осколки лета"
    PERFORMER "Валерий Меладзе"
    INDEX 01 03:54:73
  TRACK 03 AUDIO
    TITLE "Переменится ветер"
    PERFORMER "Валерий Меладзе"
    INDEX 01 07:35:49
  TRACK 04 AUDIO
    TITLE "Я не могу без тебя"
    PERFORMER "Валерий Меладзе"
    INDEX 01 11:19:21
  TRACK 05 AUDIO
    TITLE "Магдалина"
    PERFORMER "Валерий Меладзе"
    INDEX 01 15:28:42
  TRACK 06 AUDIO
    TITLE "Спрячем слёзы от посторонних"
    PERFORMER "Валерий Меладзе"
    INDEX 01 19:03:66
  TRACK 07 AUDIO
    TITLE "Не уходи"
    PERFORMER "Валерий Меладзе"
    INDEX 01 22:50:34
  TRACK 08 AUDIO
    TITLE "Лили-анаконда"
    PERFORMER "Валерий Меладзе"
    INDEX 01 26:55:47
  TRACK 09 AUDIO
    TITLE "В двух шагах от рая"
    PERFORMER "Валерий Меладзе"
    INDEX 01 30:21:19
  TRACK 10 AUDIO
    TITLE "Сделай это прямо сейчас"
    PERFORMER "Валерий Меладзе"
    INDEX 01 34:27:51
  TRACK 11 AUDIO
    TITLE "Текила-любовь"
    PERFORMER "Валерий Меладзе"
    INDEX 01 38:07:08
  TRACK 12 AUDIO
    TITLE "Комедиант"
    PERFORMER "Валерий Меладзе"
    INDEX 01 41:49:30
  TRACK 13 AUDIO
    TITLE "Чего не могут люди (Из К/Ф 'Золушка')"
    PERFORMER "Валерий Меладзе"
    INDEX 01 46:04:01
  TRACK 14 AUDIO
    TITLE "Океан и три реки (с группой ВИА Гра)"
    PERFORMER "Валерий Меладзе"
    INDEX 01 49:41:08
  TRACK 15 AUDIO
    TITLE "Притяженья больше нет (с группой ВИА Гра)"
    PERFORMER "Валерий Меладзе"
    INDEX 01 53:21:55

2008 - Антология VI. Вопреки / 00:53:56


Лейбл издания: Мистерия Звука
Страна-выпуска диска: Russia
Номер по каталогу: CD-M+375-2
01.Параллельные(3:48)
02.Сахара не надо(3:36)
03.Ей никогда не быть моей(4:15)
04.Месседж(3:40)
05.Давай устроим шоу(5:01)
06.Салют, Вера(3:44)
07.Чуть ниже небес(4:23)
08.Иностранец(4:06)
09.Без суеты(4:06)
10.Верни мою любовь (Feat. Ани Лорак)(4:25)
11.Безответно (Feat. Анастасия Приходько)(4:01)
12.Вопреки(4:26)
13.Вопреки (Симфо-версия)(4:25)

Лог создания рипа

Exact Audio Copy V1.1 from 23. June 2015
EAC extraction logfile from 24. May 2016, 13:45
Валерий Меладзе / Антология VI. Вопреки
Used drive  : PIONEER DVD-RW  DVR-212   Adapter: 1  ID: 2
Read mode               : Secure
Utilize accurate stream : Yes
Defeat audio cache      : Yes
Make use of C2 pointers : No
Read offset correction                      : 48
Overread into Lead-In and Lead-Out          : No
Fill up missing offset samples with silence : Yes
Delete leading and trailing silent blocks   : No
Null samples used in CRC calculations       : Yes
Used interface                              : Native Win32 interface for Win NT & 2000
Used output format : Internal WAV Routines
Sample format      : 44.100 Hz; 16 Bit; Stereo
TOC of the extracted CD
     Track |   Start  |  Length  | Start sector | End sector
    ---------------------------------------------------------
        1  |  0:00.00 |  3:48.04 |         0    |    17103
        2  |  3:48.04 |  3:35.67 |     17104    |    33295
        3  |  7:23.71 |  4:15.33 |     33296    |    52453
        4  | 11:39.29 |  3:40.37 |     52454    |    68990
        5  | 15:19.66 |  5:00.52 |     68991    |    91542
        6  | 20:20.43 |  3:43.65 |     91543    |   108332
        7  | 24:04.33 |  4:22.55 |    108333    |   128037
        8  | 28:27.13 |  4:06.13 |    128038    |   146500
        9  | 32:33.26 |  4:05.57 |    146501    |   164932
       10  | 36:39.08 |  4:24.64 |    164933    |   184796
       11  | 41:03.72 |  4:01.21 |    184797    |   202892
       12  | 45:05.18 |  4:25.45 |    202893    |   222812
       13  | 49:30.63 |  4:25.09 |    222813    |   242696
Range status and errors
Selected range
     Filename F:\FLAC (bruk67)\Валерий Меладзе  - Антология (1995-2015)\2008 - Антология VI. Вопреки\Валерий Меладзе - Антология VI. Вопреки.wav
     Peak level 100.0 %
     Extraction speed 3.5 X
     Range quality 100.0 %
     Test CRC B01AB1FC
     Copy CRC B01AB1FC
     Copy OK
No errors occurred
AccurateRip summary
Track  1  not present in database
Track  2  not present in database
Track  3  not present in database
Track  4  not present in database
Track  5  not present in database
Track  6  not present in database
Track  7  not present in database
Track  8  not present in database
Track  9  not present in database
Track 10  not present in database
Track 11  not present in database
Track 12  not present in database
Track 13  not present in database
None of the tracks are present in the AccurateRip database
End of status report
---- CUETools DB Plugin V2.1.6
[CTDB TOCID: lEWmWqL5QLf5sJu.6RfdVSBnQ0M-] found
Submit result: lEWmWqL5QLf5sJu.6RfdVSBnQ0M- has been confirmed
Track | CTDB Status
  1   | (1/1) Accurately ripped
  2   | (1/1) Accurately ripped
  3   | (1/1) Accurately ripped
  4   | (1/1) Accurately ripped
  5   | (1/1) Accurately ripped
  6   | (1/1) Accurately ripped
  7   | (1/1) Accurately ripped
  8   | (1/1) Accurately ripped
  9   | (1/1) Accurately ripped
10   | (1/1) Accurately ripped
11   | (1/1) Accurately ripped
12   | (1/1) Accurately ripped
13   | (1/1) Accurately ripped

Индексная карта (non-compilant .cue)

REM GENRE Pop
REM DATE 2008
REM DISCID 9D0CA30D
REM COMMENT "ExactAudioCopy v1.1"
PERFORMER "Валерий Меладзе"
TITLE "Антология VI. Вопреки"
FILE "Валерий Меладзе - Антология VI. Вопреки.wav" WAVE
  TRACK 01 AUDIO
    TITLE "Параллельные"
    PERFORMER "Валерий Меладзе"
    INDEX 01 00:00:00
  TRACK 02 AUDIO
    TITLE "Сахара не надо"
    PERFORMER "Валерий Меладзе"
    INDEX 01 03:48:04
  TRACK 03 AUDIO
    TITLE "Ей никогда не быть моей"
    PERFORMER "Валерий Меладзе"
    INDEX 01 07:23:71
  TRACK 04 AUDIO
    TITLE "Месседж"
    PERFORMER "Валерий Меладзе"
    INDEX 01 11:39:29
  TRACK 05 AUDIO
    TITLE "Давай устроим шоу"
    PERFORMER "Валерий Меладзе"
    INDEX 01 15:19:66
  TRACK 06 AUDIO
    TITLE "Салют, Вера"
    PERFORMER "Валерий Меладзе"
    INDEX 01 20:20:43
  TRACK 07 AUDIO
    TITLE "Чуть ниже небес"
    PERFORMER "Валерий Меладзе"
    INDEX 01 24:04:33
  TRACK 08 AUDIO
    TITLE "Иностранец"
    PERFORMER "Валерий Меладзе"
    INDEX 01 28:27:13
  TRACK 09 AUDIO
    TITLE "Без суеты"
    PERFORMER "Валерий Меладзе"
    INDEX 01 32:33:26
  TRACK 10 AUDIO
    TITLE "Верни мою любовь (Feat. Ани Лорак)"
    PERFORMER "Валерий Меладзе"
    INDEX 01 36:39:08
  TRACK 11 AUDIO
    TITLE "Безответно (Feat. Анастасия Приходько)"
    PERFORMER "Валерий Меладзе"
    INDEX 01 41:03:72
  TRACK 12 AUDIO
    TITLE "Вопреки"
    PERFORMER "Валерий Меладзе"
    INDEX 01 45:05:18
  TRACK 13 AUDIO
    TITLE "Вопреки (Симфо-версия)"
    PERFORMER "Валерий Меладзе"
    INDEX 01 49:30:63

2015 - Антология VII. Мой Брат (Синглы 2010-2015) / 00:35:13


Лейбл издания: Мистерия Звука
Страна-выпуска диска: Russia
Номер по каталогу: CD-M+376-2
01.Обернитесь feat. Григорий Лепс(3:50)
02.Небеса(3:56)
03.Побудь со мной(4:04)
04.Потерян и не найден(4:04)
05.Свет уходящего cолнца feat. Вахтанг(3:45)
06.Не теряй меня feat. Валерия(4:35)
07.Свободный полёт(3:45)
08.Белые птицы(3:20)
09.Мой брат(3:54)

Лог создания рипа

Exact Audio Copy V1.1 from 23. June 2015
EAC extraction logfile from 24. May 2016, 14:12
Валерий Меладзе / Антология VII. Мой Брат (Синглы 2010-2015)
Used drive  : PIONEER DVD-RW  DVR-212   Adapter: 1  ID: 2
Read mode               : Secure
Utilize accurate stream : Yes
Defeat audio cache      : Yes
Make use of C2 pointers : No
Read offset correction                      : 48
Overread into Lead-In and Lead-Out          : No
Fill up missing offset samples with silence : Yes
Delete leading and trailing silent blocks   : No
Null samples used in CRC calculations       : Yes
Used interface                              : Native Win32 interface for Win NT & 2000
Used output format : Internal WAV Routines
Sample format      : 44.100 Hz; 16 Bit; Stereo
TOC of the extracted CD
     Track |   Start  |  Length  | Start sector | End sector
    ---------------------------------------------------------
        1  |  0:00.00 |  3:49.42 |         0    |    17216
        2  |  3:49.42 |  3:56.14 |     17217    |    34930
        3  |  7:45.56 |  4:04.11 |     34931    |    53241
        4  | 11:49.67 |  4:03.56 |     53242    |    71522
        5  | 15:53.48 |  3:45.17 |     71523    |    88414
        6  | 19:38.65 |  4:35.32 |     88415    |   109071
        7  | 24:14.22 |  3:45.03 |    109072    |   125949
        8  | 27:59.25 |  3:19.46 |    125950    |   140920
        9  | 31:18.71 |  3:53.71 |    140921    |   158466
Range status and errors
Selected range
     Filename F:\FLAC (bruk67)\Валерий Меладзе  - Антология (1995-2015)\2015 - Антология VII. Мой Брат (Синглы 2010-2015)\Валерий Меладзе - Антология VII. Мой Брат (Синглы 2010-2015).wav
     Peak level 100.0 %
     Extraction speed 6.7 X
     Range quality 100.0 %
     Test CRC 19DF8483
     Copy CRC 19DF8483
     Copy OK
No errors occurred
AccurateRip summary
Track  1  not present in database
Track  2  not present in database
Track  3  not present in database
Track  4  not present in database
Track  5  not present in database
Track  6  not present in database
Track  7  not present in database
Track  8  not present in database
Track  9  not present in database
None of the tracks are present in the AccurateRip database
End of status report
---- CUETools DB Plugin V2.1.6
[CTDB TOCID: DCHilS_nkAsajOomdcxgfeA2FVM-] found
Submit result: DCHilS_nkAsajOomdcxgfeA2FVM- has been confirmed
Track | CTDB Status
  1   | (3/3) Accurately ripped
  2   | (3/3) Accurately ripped
  3   | (3/3) Accurately ripped
  4   | (3/3) Accurately ripped
  5   | (3/3) Accurately ripped
  6   | (3/3) Accurately ripped
  7   | (3/3) Accurately ripped
  8   | (3/3) Accurately ripped
  9   | (3/3) Accurately ripped

Индексная карта (non-compilant .cue)

REM GENRE Pop
REM DATE 2015
REM DISCID 70084009
REM COMMENT "ExactAudioCopy v1.1"
PERFORMER "Валерий Меладзе"
TITLE "Антология VII. Мой Брат (Синглы 2010-2015)"
FILE "Валерий Меладзе - Антология VII. Мой Брат (Синглы 2010-2015).wav" WAVE
  TRACK 01 AUDIO
    TITLE "Обернитесь feat. Григорий Лепс"
    PERFORMER "Валерий Меладзе"
    INDEX 01 00:00:00
  TRACK 02 AUDIO
    TITLE "Небеса"
    PERFORMER "Валерий Меладзе"
    INDEX 01 03:49:42
  TRACK 03 AUDIO
    TITLE "Побудь со мной"
    PERFORMER "Валерий Меладзе"
    INDEX 01 07:45:56
  TRACK 04 AUDIO
    TITLE "Потерян и не найден"
    PERFORMER "Валерий Меладзе"
    INDEX 01 11:49:67
  TRACK 05 AUDIO
    TITLE "Свет уходящего cолнца feat. Вахтанг"
    PERFORMER "Валерий Меладзе"
    INDEX 01 15:53:48
  TRACK 06 AUDIO
    TITLE "Не теряй меня feat. Валерия"
    PERFORMER "Валерий Меладзе"
    INDEX 01 19:38:65
  TRACK 07 AUDIO
    TITLE "Свободный полёт"
    PERFORMER "Валерий Меладзе"
    INDEX 01 24:14:22
  TRACK 08 AUDIO
    TITLE "Белые птицы"
    PERFORMER "Валерий Меладзе"
    INDEX 01 27:59:25
  TRACK 09 AUDIO
    TITLE "Мой брат"
    PERFORMER "Валерий Меладзе"
    INDEX 01 31:18:71
--
Яндекс.Метрика
Рейтинг@Mail.ru