Аддеролловые дневники / The Adderall Diaries (Памела Романовски / Pamela Romanowsky) [2015 г., триллер, драма, криминал, BDRip, 720p] Dub iTunes + Sub (Eng)

 

Создавать темы 17-Сен-2016 03:25

-Аддеролловые дневники / The Adderall Diaries-- Производство: США, RabbitBandini Productions, Windowseat Films
Год выпуска: 2015 г.
Жанр: триллер, драма, криминал
Продолжительность: 01:27:00Мировая премьера: 16 апреля 2015
Перевод: Профессиональный (полное дублирование) [МОСФИЛЬМ-мастер 2016]
Режиссер: Памела Романовски / Pamela Romanowsky-В ролях: Эмбер Хёрд, Джеймс Франко, Кристиан Слэйтер, Уилмер Вальдеррама, Эд Харрис, Майкл Кристофер, Синтия Никсон, Джим Пэррак-Описание: Странное судебное разбирательство по делу об убийстве самое малое, что случилось с загнанным в угол прошлым успехом, застоем, злоупотреблением алкоголем, проблемами во взаимоотношениях и комплексом отца писателем Стивеном Эллиотом. Не далее как в 2007 году на судебном разбирательстве по делу программиста Ханса Райзера, обвиняемого в убийстве своей жены, товарищ ответчика Шон Стёрджон косвенно, избегая уточнений, сознался в нескольких убийствах (но все же исключая убийство жены Райзера). Эллиот, «взятый» на основании отснятого фильма и несущественной связи со Стёрджоном (они состояли в БДСМ-сообществе), создаёт эксцентричную запись судебной процедуры.-
Качество видео: BDRip
Контейнер: MKV
Стандарт разрешения: 720p
Видео кодек: MPEG4 AVC
Аудио кодек: AC3
Видео: 1280x536 (2.40:1), 23.976 fps, MPEG-4 AVC ~7 142 kbps avg
Аудио: 48 kHz, AC3 Dolby Digital, 3/2 (L,C,R,l,r) + LFE ch, ~384 kbps
Cубтитры: английские
Формат субтитров: softsub (SRT)
Доп. информация о субтитрах: SDH, включаемые

Рецензия

Все почему-то уверены, что память подводит других, а их память — безупречна. Это не так. Как и многие прочие люди, главный герой фильма «Аддеролловые дневники» убедил себя, что он жертва, выстроил уютный мирок, где все вокруг обвиняемые, а он — безупречен.
Так работает человеческий мозг. В психологии это зовется компенсаторикой. И вытеснением. Плохие воспоминания либо вообще исчезают из памяти, или превращаются в те, которые реабилитируют вас как личность, и позволяют двигаться дальше. Так выглядит психика любого здорового человека.
Фильм несет важную идею. Но, увы, содержательная его часть скудная. Ее несколько оживляет прекрасная игра Джеймса Франко и особенно — Эда Харриса, но две сюжетные линии, смыкаясь в одну, слишком бедны, чтобы рассказать по-настоящему увлекательную историю. Попросту говоря, фильм скучноват.
Герой — бывший наркоман, после смерти матери пустившийся во все тяжкие и дошедший почти до финала. Но в этой реальности наркоманы не умирают, бывают бывшими, и возрождаются к жизни, повзрослев. Заложниками их зависимости становятся близкие люди (в данном случае — вдовец и отец), которого молодой писатель в своих книгах представляет настоящим монстром. А себя его жертвой. Он искренне верит в то, что все именно так, как он описал в книгах.
Истина одна. А правд бывает много. «Аддеролловые дневники» именно об этом. Герой так бы и прожил свою жизнь в иллюзиях, если бы не появление его отца, если бы не процесс убийцы, которым он заинтересовался. Убийца тоже оправдывает себя во всем. Потому что, как говорит он, «оправдание — наркотик». Человеку, который себя оправдал, нет дела до укоров совести, он готов жить даже за решеткой, но, высказав свою собственную версию, где он — конечно, жертва обстоятельств. А во всем виноваты окружающие.
Тем не менее, без этого механизма самооправдания, было бы невозможно жить. Больные люди, лишенные механизма компенсаторики в пораженном недугом мозгу, как правило, страдают от тяжелейших депрессий и нервных расстройств. Но здоровые люди тоже вряд ли абсолютно здоровы и честны с собой. У них всегда проблемы с памятью, хотя они думают, что вытащили все скелеты из семейного шкафа и камни с души переложили за пазуху.

Media Info

общее
Уникальный идентификатор : 223759000558098564399102459057318624203 (0xA8566A7BB4AD3B5B94C20D37F2DB7BCB)
Полное имя : C:\герои 7\Аддеролловые дневники\The Adderall Diaries.2015.BDRip.720p.[pirat.ca].mkv
Формат : Matroska
Версия формата : Version 2
Размер файла : 4,68 Гбайт
Продолжительность : 1 ч. 27 м.
Общий поток : 7709 Кбит/сек
Название фильма : The.Adderall.Diaries.2015.720p.BluRay
Дата кодирования : UTC 2016-09-15 13:35:00
Программа кодирования : mkvmerge v5.3.0 ('I could have danced') built on Feb 9 2012 10:38:07
Библиотека кодирования : libebml v1.2.3 + libmatroska v1.3.0Видео
Идентификатор : 1
Формат : AVC
Формат/Информация : Advanced Video Codec
Профиль формата : [email protected]/* */
Параметр CABAC формата : Да
Параметр ReFrames формата : 12 кадров
Идентификатор кодека : V_MPEG4/ISO/AVC
Продолжительность : 1 ч. 27 м.
Битрейт : 7171 Кбит/сек
Ширина : 1280 пикселей
Высота : 536 пикселей
Соотношение сторон : 2,40:1
Режим частоты кадров : Постоянный
Частота кадров : 23,976 (24000/1001) кадра/сек
Цветовое пространство : YUV
Субдискретизация насыщенности : 4:2:0
Битовая глубина : 8 бит
Тип развёртки : Прогрессивная
Бит/(Пиксели*Кадры) : 0.436
Размер потока : 4,36 Гбайт (93%)
Библиотека кодирования : x264 core 146 r2538 121396c
Настройки программы : cabac=1 / ref=12 / deblock=1:-3:-3 / analyse=0x3:0x133 / me=tesa / subme=11 / psy=1 / psy_rd=1.04:0.00 / mixed_ref=1 / me_range=32 / chroma_me=1 / trellis=2 / 8x8dct=1 / cqm=0 / deadzone=21,11 / fast_pskip=0 / chroma_qp_offset=-2 / threads=60 / lookahead_threads=4 / sliced_threads=0 / nr=0 / decimate=0 / interlaced=0 / bluray_compat=0 / constrained_intra=0 / bframes=12 / b_pyramid=2 / b_adapt=2 / b_bias=0 / direct=3 / weightb=1 / open_gop=0 / weightp=2 / keyint=240 / keyint_min=23 / scenecut=40 / intra_refresh=0 / rc_lookahead=150 / rc=crf / mbtree=0 / crf=15.5 / qcomp=0.60 / qpmin=0 / qpmax=69 / qpstep=4 / vbv_maxrate=62500 / vbv_bufsize=78125 / crf_max=0.0 / nal_hrd=none / filler=0 / ip_ratio=1.40 / pb_ratio=1.30 / aq=1:0.80
Язык : English
Default : Да
Forced : Нет
Statistics Tags Issue : mkvmerge v8.3.0 ('Over the Horizon') 64bit 2016-09-14 21:15:40 / mkvmerge v5.3.0 ('I could have danced') built on Feb 9 2012 10:38:07 2016-09-15 13:35:00
FromStats_BitRate : 7323133
FromStats_Duration : 01:27:00.257000000
FromStats_FrameCount : 125161
FromStats_StreamSize : 4778579656Аудио
Идентификатор : 2
Формат : AC-3
Формат/Информация : Audio Coding 3
Расширение режима : CM (complete main)
Параметр Endianness формата : Big
Идентификатор кодека : A_AC3
Продолжительность : 1 ч. 27 м.
Вид битрейта : Постоянный
Битрейт : 384 Кбит/сек
Каналы : 6 каналов
Расположение каналов : Front: L C R, Side: L R, LFE
Частота : 48,0 КГц
Частота кадров : 31,250 кадров/сек (1536 spf)
Метод сжатия : С потерями
Размер потока : 239 Мбайт (5%)
Заголовок : DUB| МОСФИЛЬМ-мастер 2016
Язык : Russian
Default : Да
Forced : Да
Statistics Tags Issue : mkvmerge v8.3.0 ('Over the Horizon') 64bit 2016-09-14 21:15:40 / mkvmerge v5.3.0 ('I could have danced') built on Feb 9 2012 10:38:07 2016-09-15 13:35:00
FromStats_BitRate : 384000
FromStats_Duration : 01:26:53.088000000
FromStats_FrameCount : 162909
FromStats_StreamSize : 250228224Текст
Идентификатор : 3
Формат : UTF-8
Идентификатор кодека : S_TEXT/UTF8
Идентификатор кодека/Информация : UTF-8 Plain Text
Заголовок : English-SDH
Язык : English
Default : Нет
Forced : Нет
Statistics Tags Issue : mkvmerge v8.3.0 ('Over the Horizon') 64bit 2016-09-14 21:15:40 / mkvmerge v5.3.0 ('I could have danced') built on Feb 9 2012 10:38:07 2016-09-15 13:35:00
FromStats_BitRate : 63
FromStats_Duration : 01:25:44.609000000
FromStats_FrameCount : 1184
FromStats_StreamSize : 41065Меню
00:00:00.000 : en:Chapter 1
00:03:38.093 : en:Chapter 2
00:10:39.848 : en:Chapter 3
00:16:22.607 : en:Chapter 4
00:20:18.676 : en:Chapter 5
00:28:44.514 : en:Chapter 6
00:33:07.068 : en:Chapter 7
00:38:40.443 : en:Chapter 8
00:43:29.273 : en:Chapter 9
00:51:16.990 : en:Chapter 10
00:54:33.979 : en:Chapter 11
00:59:51.588 : en:Chapter 12
01:06:14.595 : en:Chapter 13
01:11:39.086 : en:Chapter 14
01:16:01.724 : en:Chapter 15
01:19:02.780 : en:Chapter 16

Скриншот c названием фильма

Скриншоты

Яндекс.Метрика
Рейтинг@Mail.ru