Свадебный угар / Mike and Dave Need Wedding Dates (Джейк Зиманский / Jake Szymanski) [2016 г., мелодрама, комедия, приключения, WEB-DLRip] Dub [iTunes]

 

Создавать темы 17-Сен-2016 03:16

--Свадебный угар / Mike and Dave Need Wedding Dates--«They needed hot dates. They got hot messes»-- Производство: США / 20th Century Fox Film Corporation, Chernin Entertainment, TSG Entertainment
Год выпуска: 2016 г.
Жанр: мелодрама, комедия, приключения
Продолжительность: 01:38:50--Мировая премьера: 7 июля 2016
Российская премьера: 7 июля 2016--Перевод: Профессиональный (полное дублирование) [iTunes]--Режиссер: Джейк Зиманский / Jake Szymanski--В ролях: Зак Эфрон, Адам Дивайн, Анна Кендрик, Обри Плаза, Стивен Рут, Стефани Фэраси, Стефани Бирд, Сэм Ричардсон, Элис Веттерлунд, Лавелл Кроуфорд--Описание: Братья-тусовщики Майк и Дэйв дают в интернете объявление о поиске пар, чтобы отправиться на свадьбу сестры на Гавайях. Они надеются на дикий отрыв, но выбранный ими дуэт девушек оказывается совершенно неконтролируемым, готовым превратить праздник в настоящий ад.-- --Качество видео: WEB-DLRip
Контейнер: AVI
Видео кодек: XviD
Аудио кодек: AC3
Видео: 720x304 (2.37:1), 23.976 fps, XviD build 50 ~1722 kbps avg, 0.33 bit/pixel
Аудио: 48 kHz, AC3 Dolby Digital, 3/2 (L,C,R,l,r) + LFE ch, ~384 kbpsCубтитры: отсутствуют.

Media Info

Общее
Полное имя : H:\Torrent2\CBadebHYj.uGaP.2o16.D.WEB-DLRip.1.46Gb.avi
Формат : AVI
Формат/Информация : Audio Video Interleave
Размер файла : 1,46 Гбайт
Продолжительность : 1 ч. 38 м.
Общий поток : 2115 Кбит/сек
Название фильма : CBadebHYj.uGaP.2o16.D.WEB-DLRip.1.46Gb
Программа кодирования : VirtualDubMod 1.5.10.3 | www.virtualdub-fr.org || (build 2550/release)
Формат оригинала/Имя : MovieВидео
Идентификатор : 0
Формат : MPEG-4 Visual
Профиль формата : Advanced [email protected]/* */
Параметр BVOP формата : 2
Параметр QPel формата : Нет
Параметр GMC формата : Без точки перехода
Параметр матрицы формата : Default (MPEG)
Идентификатор кодека : XVID
Идентификатор кодека/Подсказка : XviD
Продолжительность : 1 ч. 38 м.
Битрейт : 1723 Кбит/сек
Ширина : 720 пикселей
Высота : 304 пикселя
Соотношение сторон : 2,35:1
Частота кадров : 23,976 (24000/1001) кадра/сек
Цветовое пространство : YUV
Субдискретизация насыщенности : 4:2:0
Битовая глубина : 8 бит
Тип развёртки : Прогрессивная
Метод сжатия : С потерями
Бит/(Пиксели*Кадры) : 0.328
Размер потока : 1,19 Гбайт (81%)
Библиотека кодирования : XviD 1.2.1 (UTC 2008-12-04)Аудио
Идентификатор : 1
Формат : AC-3
Формат/Информация : Audio Coding 3
Расширение режима : CM (complete main)
Параметр Endianness формата : Big
Идентификатор кодека : 2000
Продолжительность : 1 ч. 38 м.
Вид битрейта : Постоянный
Битрейт : 384 Кбит/сек
Каналы : 6 каналов
Расположение каналов : Front: L C R, Side: L R, LFE
Частота : 48,0 КГц
Частота кадров : 31,250 кадров/сек (1536 spf)
Метод сжатия : С потерями
Размер потока : 271 Мбайт (18%)
Выравнивание : Разделение по промежуткам
Продолжительность промежутка : 42 мс. (1,00 видеокадр)
Время предзагрузки промежутка : 500 мс.

Скриншоты

Трейлер
Яндекс.Метрика
Рейтинг@Mail.ru