(Pop)Вера Брежнева - VerVera - 2015 [APE, image +.cue, lossless]

 

Создавать темы 17-Сен-2016 03:12

-Вера Брежнева - VerVera--
Год издания: 2015
Страна: Russia
Жанр: Pop
Продолжительность: 00:51:05-Лейбл издания: Мистерия Звука
Страна-выпуска диска: Ukraina
Номер по каталогу: MR 5750-2-Формат: APE
Битрейт аудио: Lossless
Тип рипа: image +.cue
Наличие сканов в содержимом раздачи: да
-

Трэклист


01.Доброе утро(3:48)
02.Хороший день(3:34)
03.Девочка моя(3:43)
04.4 времени(4:08)
05.Бессонница(3:50)
06.Реальная жизнь(3:55)
07.Мамочка(3:02)
08.Luna (п/у Артур Пирожков)(3:38)
09.Любовь на расстоянии (п/у Smash)(3:43)
10.Feel(2:51)
11.Скажи (п/у Dруга Ріка)(3:57)
12.Каждый хочет быть счастливым(3:44)
13.Дом(3:34)
14.Оттепель(3:39)
-

Лог создания рипа

Код:
Exact Audio Copy V1.1 from 23. June 2015Отчёт EAC об извлечении, выполненном 26. марта 2016, 9:52Вера Брежнева / VerVeraДисковод: TSSTcorpCDDVDW SE-S084D   Adapter: 1  ID: 3Режим чтения                 : Достоверность
Использование точного потока : Да
Отключение кэша аудио        : Да
Использование указателей C2  : НетКоррекция смещения при чтении                     : 6
Способность читать области Lead-in и Lead-out     : Нет
Заполнение пропущенных сэмплов тишиной            : Да
Удаление блоков с тишиной в начале и конце        : Нет
При вычислениях CRC использовались нулевые сэмплы : Да
Интерфейс                                         : Встроенный Win32-интерфейс для Win NT/2000Выходной формат          : Monkey's Audio (без потерь)
Выбранный битрейт        : Extra High Lossless Compression
Качество                 : Высокий
Добавление ID3-тега      : Нет
Утилита сжатия           : D:\MAC.exe
Дополнительные параметры : -vTOC извлечённого CD     Трек |   Старт  | Длительность | Начальный сектор | Конечный сектор
---------------------------------------------------------------------
1  |  0:00.00 |    3:47.61   |           0      |      17085
2  |  3:47.61 |    3:33.62   |       17086      |      33122
3  |  7:21.48 |    3:43.10   |       33123      |      49857
4  | 11:04.58 |    4:07.44   |       49858      |      68426
5  | 15:12.27 |    3:50.02   |       68427      |      85678
6  | 19:02.29 |    3:54.63   |       85679      |     103291
7  | 22:57.17 |    3:01.66   |      103292      |     116932
8  | 25:59.08 |    3:38.04   |      116933      |     133286
9  | 29:37.12 |    3:43.18   |      133287      |     150029
10  | 33:20.30 |    2:50.69   |      150030      |     162848
11  | 36:11.24 |    3:57.27   |      162849      |     180650
12  | 40:08.51 |    3:43.47   |      180651      |     197422
13  | 43:52.23 |    3:33.57   |      197423      |     213454
14  | 47:26.05 |    3:38.57   |      213455      |     229861Характеристики диапазона извлечения и сообщения об ошибкахВыбранный диапазон     Имя файла D:\!!!!\111\VerVera.wav     Пиковый уровень 98.9 %
Скорость извлечения 1.3 X
Качество диапазона 100.0 %
CRC теста 59F8EFD5
CRC копии 59F8EFD5
Копирование... OKОшибок не произошлоAccurateRip: сводкаТрек  1  точность не определена (достоверность 1)  [BAC4B19D], AccurateRip вернул [D21ED371]  (AR v2)
Трек  2  точность не определена (достоверность 1)  [6B55035A], AccurateRip вернул [77DD7AE5]  (AR v2)
Трек  3  точность не определена (достоверность 1)  [2F16237C], AccurateRip вернул [B0B7ABCD]  (AR v2)
Трек  4  точность не определена (достоверность 1)  [BC9FFA65], AccurateRip вернул [62C04014]  (AR v2)
Трек  5  точность не определена (достоверность 1)  [A56ADBC8], AccurateRip вернул [E67EC4BD]  (AR v2)
Трек  6  точность не определена (достоверность 1)  [63EC86EB], AccurateRip вернул [5FC9C0FA]  (AR v2)
Трек  7  точность не определена (достоверность 1)  [A77DE16F], AccurateRip вернул [BE27A3A8]  (AR v2)
Трек  8  точность не определена (достоверность 1)  [47572535], AccurateRip вернул [57314411]  (AR v2)
Трек  9  точность не определена (достоверность 1)  [83259C5D], AccurateRip вернул [0659929D]  (AR v2)
Трек 10  точность не определена (достоверность 1)  [929A93E9], AccurateRip вернул [EE954CCE]  (AR v2)
Трек 11  точность не определена (достоверность 1)  [375C9216], AccurateRip вернул [CA49EB2E]  (AR v2)
Трек 12  точность не определена (достоверность 1)  [9720F131], AccurateRip вернул [0A04045B]  (AR v2)
Трек 13  точность не определена (достоверность 1)  [770E2979], AccurateRip вернул [429ECD53]  (AR v2)
Трек 14  точность не определена (достоверность 1)  [2D6E0941], AccurateRip вернул [02172F7E]  (AR v2)Ни один трек не прошёл проверки на точность
В вашей базе может быть иной вариант штамповки дискаКонец отчёта---- CUETools DB Plugin V2.1.6[CTDB TOCID: UmDQC3MWpA6cB92Fq6tTGMnXhBw-] found
Submit result: already submitted
Track | CTDB Status
1   | (1/3) Accurately ripped
2   | (1/3) Accurately ripped
3   | (1/3) Accurately ripped
4   | (1/3) Accurately ripped
5   | (1/3) Accurately ripped
6   | (1/3) Accurately ripped
7   | (1/3) Accurately ripped
8   | (1/3) Accurately ripped
9   | (1/3) Accurately ripped
10   | (1/3) Accurately ripped
11   | (1/3) Accurately ripped
12   | (1/3) Accurately ripped
13   | (1/3) Accurately ripped
14   | (1/3) Accurately ripped

Индексная карта (non-compilant .cue)

REM GENRE Pop
REM DATE 2015
REM DISCID BA0BF80E
REM COMMENT ripped by  gnumac
PERFORMER "Вера Брежнева"
TITLE "VerVera"
FILE "VerVera.ape" WAVE
TRACK 01 AUDIO
TITLE "Доброе утро"
PERFORMER "Вера Брежнева"
INDEX 01 00:00:00
TRACK 02 AUDIO
TITLE "Хороший день"
PERFORMER "Вера Брежнева"
INDEX 01 03:47:61
TRACK 03 AUDIO
TITLE "Девочка моя"
PERFORMER "Вера Брежнева"
INDEX 01 07:21:48
TRACK 04 AUDIO
TITLE "4 времени"
PERFORMER "Вера Брежнева"
INDEX 01 11:04:58
TRACK 05 AUDIO
TITLE "Бессонница"
PERFORMER "Вера Брежнева"
INDEX 01 15:12:27
TRACK 06 AUDIO
TITLE "Реальная жизнь"
PERFORMER "Вера Брежнева"
INDEX 01 19:02:29
TRACK 07 AUDIO
TITLE "Мамочка"
PERFORMER "Вера Брежнева"
INDEX 01 22:57:17
TRACK 08 AUDIO
TITLE "Luna  (п/у  Артур Пирожков)"
PERFORMER "Вера Брежнева"
INDEX 01 25:59:08
TRACK 09 AUDIO
TITLE "Любовь на расстоянии  (п/у  Smash)"
PERFORMER "Вера Брежнева"
INDEX 01 29:37:12
TRACK 10 AUDIO
TITLE "Feel"
PERFORMER "Вера Брежнева"
INDEX 01 33:20:30
TRACK 11 AUDIO
TITLE "Скажи  (п/у  Dруга Ріка)"
PERFORMER "Вера Брежнева"
INDEX 01 36:11:24
TRACK 12 AUDIO
TITLE "Каждый хочет быть счастливым"
PERFORMER "Вера Брежнева"
INDEX 01 40:08:51
TRACK 13 AUDIO
TITLE "Дом"
PERFORMER "Вера Брежнева"
INDEX 01 43:52:23
TRACK 14 AUDIO
TITLE "Оттепель"
PERFORMER "Вера Брежнева"
INDEX 01 47:26:05
--
Яндекс.Метрика
Рейтинг@Mail.ru